img image001 image001 image001 image001 image001 image001 image001 image001 image001 image001 image001 image001 image001 image001 image001

Planets Sun Sun Sun
Статистика раздачи
Автор: Снежана | Размер: 2.77 ГБ | Добавлен: 25 июл 2013
Раздают: 5    Качают: 3
Скачать торрент
Скачать торрент
Описание торрента

СообщениеДобавлено: 25 июл 2013 


Инфомация о фильме
Название: Дикая природа Америки
Оригинальное название: Untamed Americas
Год выхода: 2012
Жанр: Документальный, животные, природа
Режиссер: Карен Басс, Энн Таррант, Энди Митчел
В ролях: Josh Brolin (Narrator)
О фильме
За бетонными джунглями, в нескольких минутах от нашего собственного двора - другой мир борется, процветает и выживает. Станьте свидетелями редкостной в мире элегантности, силы и скорости, снятых только на американском континенте и показанных в 4-х частях мини сериала от National Geographic. Рассматривая горы с Севера на Юг, пересекая жесткие и сухие пустыни, проходя по лесам и кружась над побережьем, * Дикая природа Америки *- призывает по-новому, взглянуть на жизнь, на смерть, знакомые существа и научные открытия. Благодаря не показанному ранее поведению редко снимаемых животных, *Дикая природа Америки* представляет собой большую улицу, проходящую сразу за нашими собственными дворами, которую мы никогда не видели прежде.



Episode 1: Deserts / Эпизод 1: Пустыни
Продолжительность: 00:45:00
Посмотрите на диких животных в пустынях Северной и Южной Америки. В серии представлены: мустанги в Большом Бассейне; пингвины Гумбольдта в пустыне Атакама; тигровая бабочка в Чиуауан; саранчовая мышь в Соноранской пустыне.
* Большой Бассейн - бессточная область во внутреннем поясе Кордильер Северной Америки
** Пустыня Атакама – одно из самых засушливых на Земле, расположена на севере Чили, между Андами и Тихим океаном
*** Официальное название Свободный и Суверенный Штат Чиуауа (Estado Libre y Soberano de Chihuahua) - штат на севере Мексики, граничащий с американскими штатами Аризона и Техас
**** Соноранская пустыня (Desierto de Sonora), также известная как пустыня Хила. Песчано-каменистая пустыня в Северной Америке
.


Уникальный идентификатор : 195598699951898925656939060874583278339 (0x9326F07810D39E3DB916F42F8E610303)
Полное имя : D:Untamed_Americas.E1.Deserts.2012.mkv
Формат : Matroska
Версия формата : Version 2
Размер файла : 708 Мбайт
Продолжительность : 45 м.
Общий поток : 2200 Кбит/сек
Дата кодирования : UTC 2013-06-01 14:56:20
Программа кодирования : mkvmerge v6.1.0 ('Old Devil') built on Mar 4 2013 09:10:42
Библиотека кодирования : libebml v1.3.0 + libmatroska v1.4.0
Видео
Идентификатор : 1
Формат : AVC
Формат/Информация : Advanced Video Codec
Профиль формата : High@L4.1
Параметр CABAC формата : Да
Параметр ReFrames формата : 5 кадров
Идентификатор кодека : V_MPEG4/ISO/AVC
Продолжительность : 45 м.
Битрейт : 1750 Кбит/сек
Ширина : 1024 пикселя
Высота : 576 пикселей
Соотношение сторон : 16:9
Режим частоты кадров : Постоянный
Частота кадров : 23,976 кадра/сек
Цветовое пространство : YUV
Субдискретизация насыщенности : 4:2:0
Битовая глубина : 8 бит
Тип развёртки : Прогрессивная
Бит/(Пиксели*Кадры) : 0.124
Размер потока : 550 Мбайт (78%)
Библиотека кодирования : x264 core 130 r2273 b3065e6
Настройки программы : cabac=1 / ref=5 / deblock=1:-2:-2 / analyse=0x3:0x111 / me=umh / subme=9 / psy=1 / psy_rd=0.00:0.10 / mixed_ref=1 / me_range=32 / chroma_me=1 / trellis=2 / 8x8dct=1 / cqm=0 / deadzone=21,11 / fast_pskip=0 / chroma_qp_offset=-1 / threads=4 / lookahead_threads=1 / sliced_threads=0 / nr=0 / decimate=1 / interlaced=0 / bluray_compat=0 / constrained_intra=0 / bframes=5 / b_pyramid=2 / b_adapt=0 / b_bias=0 / direct=1 / weightb=1 / open_gop=0 / weightp=2 / keyint=250 / keyint_min=23 / scenecut=40 / intra_refresh=0 / rc_lookahead=50 / rc=2pass / mbtree=1 / bitrate=1750 / ratetol=1.0 / qcomp=0.60 / qpmin=0 / qpmax=69 / qpstep=4 / cplxblur=20.0 / qblur=0.5 / ip_ratio=1.40 / aq=1:1.00
Default : Да
Forced : Нет
Аудио
Идентификатор : 2
Формат : AC-3
Формат/Информация : Audio Coding 3
Расширение режима : CM (complete main)
Параметр Endianness формата : Big
Идентификатор кодека : A_AC3
Продолжительность : 45 м.
Вид битрейта : Постоянный
Битрейт : 448 Кбит/сек
Каналы : 6 каналов
Расположение каналов : Front: L C R, Side: L R, LFE
Частота : 48,0 КГц
Битовая глубина : 16 бит
Метод сжатия : С потерями
Размер потока : 144 Мбайт (20%)
Default : Да
Forced : Нет


Episode 2: Mountains / Эпизод 2: Горы
Продолжительность: 00:45:00
В серии представлены редкие кадры охоты вновь проснувшихся черных медведей на Йеллоустоунском Плато. А также: борьба снежного барана, за право продолжения рода в Скалистых горах, детеныши пумы учившиеся охотиться в чилийских Андах..

* Йеллоустонское плато, почти со всех сторон плато ограничено хребтами Скалистых гор высотой от 2700 до 3400 метров над уровнем моря, высшая точка парка — Орлиный пик (англ. Eagle Peak) высотой 3462 м над уровнем моря; низшая находится в долине ручья Риз (англ. Reese Creek), 1610 м, всё это образует активный вулкан Йеллоустоун.


Уникальный идентификатор : 215545831396348586837520698631948814845 (0xA2289DFAC0433FA3A7F1A855008B49FD)
Полное имя : D:Untamed_Americas.E2.Mountains.2012.mkv
Формат : Matroska
Версия формата : Version 2
Размер файла : 708 Мбайт
Продолжительность : 45 м.
Общий поток : 2199 Кбит/сек
Дата кодирования : UTC 2013-06-01 20:03:37
Программа кодирования : mkvmerge v6.1.0 ('Old Devil') built on Mar 4 2013 09:10:42
Библиотека кодирования : libebml v1.3.0 + libmatroska v1.4.0
Видео
Идентификатор : 1
Формат : AVC
Формат/Информация : Advanced Video Codec
Профиль формата : High@L4.1
Параметр CABAC формата : Да
Параметр ReFrames формата : 5 кадров
Идентификатор кодека : V_MPEG4/ISO/AVC
Продолжительность : 45 м.
Битрейт : 1750 Кбит/сек
Ширина : 1024 пикселя
Высота : 576 пикселей
Соотношение сторон : 16:9
Режим частоты кадров : Постоянный
Частота кадров : 23,976 кадра/сек
Цветовое пространство : YUV
Субдискретизация насыщенности : 4:2:0
Битовая глубина : 8 бит
Тип развёртки : Прогрессивная
Бит/(Пиксели*Кадры) : 0.124
Размер потока : 550 Мбайт (78%)
Библиотека кодирования : x264 core 130 r2273 b3065e6
Настройки программы : cabac=1 / ref=5 / deblock=1:-2:-2 / analyse=0x3:0x111 / me=umh / subme=9 / psy=1 / psy_rd=0.00:0.10 / mixed_ref=1 / me_range=32 / chroma_me=1 / trellis=2 / 8x8dct=1 / cqm=0 / deadzone=21,11 / fast_pskip=0 / chroma_qp_offset=-1 / threads=4 / lookahead_threads=1 / sliced_threads=0 / nr=0 / decimate=1 / interlaced=0 / bluray_compat=0 / constrained_intra=0 / bframes=5 / b_pyramid=2 / b_adapt=0 / b_bias=0 / direct=1 / weightb=1 / open_gop=0 / weightp=2 / keyint=250 / keyint_min=23 / scenecut=40 / intra_refresh=0 / rc_lookahead=50 / rc=2pass / mbtree=1 / bitrate=1750 / ratetol=1.0 / qcomp=0.60 / qpmin=0 / qpmax=69 / qpstep=4 / cplxblur=20.0 / qblur=0.5 / ip_ratio=1.40 / aq=1:1.00
Default : Да
Forced : Нет
Аудио
Идентификатор : 2
Формат : AC-3
Формат/Информация : Audio Coding 3
Расширение режима : CM (complete main)
Параметр Endianness формата : Big
Идентификатор кодека : A_AC3
Продолжительность : 45 м.
Вид битрейта : Постоянный
Битрейт : 448 Кбит/сек
Каналы : 6 каналов
Расположение каналов : Front: L C R, Side: L R, LFE
Частота : 48,0 КГц
Битовая глубина : 16 бит
Метод сжатия : С потерями
Размер потока : 144 Мбайт (20%)
Default : Да
Forced : Нет



Episode 3: Coasts / Эпизод 3: Побережье
Продолжительность: 00:45:00
Изучение побережья Северной, Центральной и Южной Америки. В серии представлены: самцы пингвинов, выполняющие брачные игры на Фолклендских островах; гигантские кальмары Гумбольдта охотятся на своих "родственников" в Море Кортеса у побережья Мексики.

*Фолкле́ндские острова́ (англ. Falkland Islands - Фолклендские острова, исп. Islas Malvinas - Мальвинские острова) - архипелаг в юго-западной части Атлантического океана
** Гигантский кальмар или Кальмар Гумбольдта (Dosidicus gigas). Свое название получил в честь течения Гумбольдта, где он был впервые обнаружен
*** Калифорнийский залив (исп. Golfo de California), известен также как Море Кортеса (исп. Mar de Cortйs) - залив, отделяющий полуостров Калифорния от мексиканского континентального побережья Тихого океана.



Уникальный идентификатор : 230032662661415814967555212657607172012 (0xAD0EADE7F5B1E94394E2069C21F5DFAC)
Полное имя : D:Untamed_Americas.E3_Coasts.2012.mkv
Формат : Matroska
Версия формата : Version 2
Размер файла : 708 Мбайт
Продолжительность : 45 м.
Общий поток : 2200 Кбит/сек
Дата кодирования : UTC 2013-06-02 00:48:28
Программа кодирования : mkvmerge v6.1.0 ('Old Devil') built on Mar 4 2013 09:10:42
Библиотека кодирования : libebml v1.3.0 + libmatroska v1.4.0
Видео
Идентификатор : 1
Формат : AVC
Формат/Информация : Advanced Video Codec
Профиль формата : High@L4.1
Параметр CABAC формата : Да
Параметр ReFrames формата : 5 кадров
Идентификатор кодека : V_MPEG4/ISO/AVC
Продолжительность : 45 м.
Битрейт : 1750 Кбит/сек
Ширина : 1024 пикселя
Высота : 576 пикселей
Соотношение сторон : 16:9
Режим частоты кадров : Постоянный
Частота кадров : 23,976 кадра/сек
Цветовое пространство : YUV
Субдискретизация насыщенности : 4:2:0
Битовая глубина : 8 бит
Тип развёртки : Прогрессивная
Бит/(Пиксели*Кадры) : 0.124
Размер потока : 550 Мбайт (78%)
Библиотека кодирования : x264 core 130 r2273 b3065e6
Настройки программы : cabac=1 / ref=5 / deblock=1:-2:-2 / analyse=0x3:0x111 / me=umh / subme=9 / psy=1 / psy_rd=0.00:0.10 / mixed_ref=1 / me_range=32 / chroma_me=1 / trellis=2 / 8x8dct=1 / cqm=0 / deadzone=21,11 / fast_pskip=0 / chroma_qp_offset=-1 / threads=4 / lookahead_threads=1 / sliced_threads=0 / nr=0 / decimate=1 / interlaced=0 / bluray_compat=0 / constrained_intra=0 / bframes=5 / b_pyramid=2 / b_adapt=0 / b_bias=0 / direct=1 / weightb=1 / open_gop=0 / weightp=2 / keyint=250 / keyint_min=23 / scenecut=40 / intra_refresh=0 / rc_lookahead=50 / rc=2pass / mbtree=1 / bitrate=1750 / ratetol=1.0 / qcomp=0.60 / qpmin=0 / qpmax=69 / qpstep=4 / cplxblur=20.0 / qblur=0.5 / ip_ratio=1.40 / aq=1:1.00
Default : Да
Forced : Нет
Аудио
Идентификатор : 2
Формат : AC-3
Формат/Информация : Audio Coding 3
Расширение режима : CM (complete main)
Параметр Endianness формата : Big
Идентификатор кодека : A_AC3
Продолжительность : 45 м.
Вид битрейта : Постоянный
Битрейт : 448 Кбит/сек
Каналы : 6 каналов
Расположение каналов : Front: L C R, Side: L R, LFE
Частота : 48,0 КГц
Битовая глубина : 16 бит
Метод сжатия : С потерями
Размер потока : 144 Мбайт (20%)
Default : Да
Forced : Нет


Episode 4: Forests / Эпизод 4: Леса
Продолжительность: 00:45:00
Показываются дикие животные в лесах Америки. В серии представлены: речные дельфины, ягуары и крокодиловый кайман в Амазонии; Kermode медведь в канадском Великом медвежьем тропическом лесу.


* Крокодиловый кайман (лат. Caiman crocodilus) - один из видов кайманов. Это некрупный аллигатор с довольно длинной, суженной спереди мордой.
**Дух медведя (также известный как Kermode медведь) - белый вариант Североамериканского черного медведя



Уникальный идентификатор : 238808983729994444957636655909316203222 (0xB3A8EFF1484ED322A2F1E2FB8F4612D6)
Полное имя : D:Untamed_Americas.E4.Forests.2012.mkv
Формат : Matroska
Версия формата : Version 2
Размер файла : 708 Мбайт
Продолжительность : 45 м.
Общий поток : 2200 Кбит/сек
Дата кодирования : UTC 2013-06-02 04:51:38
Программа кодирования : mkvmerge v6.1.0 ('Old Devil') built on Mar 4 2013 09:10:42
Библиотека кодирования : libebml v1.3.0 + libmatroska v1.4.0
Видео
Идентификатор : 1
Формат : AVC
Формат/Информация : Advanced Video Codec
Профиль формата : High@L4.1
Параметр CABAC формата : Да
Параметр ReFrames формата : 5 кадров
Идентификатор кодека : V_MPEG4/ISO/AVC
Продолжительность : 45 м.
Битрейт : 1750 Кбит/сек
Ширина : 1024 пикселя
Высота : 576 пикселей
Соотношение сторон : 16:9
Режим частоты кадров : Постоянный
Частота кадров : 23,976 кадра/сек
Цветовое пространство : YUV
Субдискретизация насыщенности : 4:2:0
Битовая глубина : 8 бит
Тип развёртки : Прогрессивная
Бит/(Пиксели*Кадры) : 0.124
Размер потока : 550 Мбайт (78%)
Библиотека кодирования : x264 core 130 r2273 b3065e6
Настройки программы : cabac=1 / ref=5 / deblock=1:-2:-2 / analyse=0x3:0x111 / me=umh / subme=9 / psy=1 / psy_rd=0.00:0.10 / mixed_ref=1 / me_range=32 / chroma_me=1 / trellis=2 / 8x8dct=1 / cqm=0 / deadzone=21,11 / fast_pskip=0 / chroma_qp_offset=-1 / threads=4 / lookahead_threads=1 / sliced_threads=0 / nr=0 / decimate=1 / interlaced=0 / bluray_compat=0 / constrained_intra=0 / bframes=5 / b_pyramid=2 / b_adapt=0 / b_bias=0 / direct=1 / weightb=1 / open_gop=0 / weightp=2 / keyint=250 / keyint_min=23 / scenecut=40 / intra_refresh=0 / rc_lookahead=50 / rc=2pass / mbtree=1 / bitrate=1750 / ratetol=1.0 / qcomp=0.60 / qpmin=0 / qpmax=69 / qpstep=4 / cplxblur=20.0 / qblur=0.5 / ip_ratio=1.40 / aq=1:1.00
Default : Да
Forced : Нет
Аудио
Идентификатор : 2
Формат : AC-3
Формат/Информация : Audio Coding 3
Расширение режима : CM (complete main)
Параметр Endianness формата : Big
Идентификатор кодека : A_AC3
Продолжительность : 45 м.
Вид битрейта : Постоянный
Битрейт : 448 Кбит/сек
Каналы : 6 каналов
Расположение каналов : Front: L C R, Side: L R, LFE
Частота : 48,0 КГц
Битовая глубина : 16 бит
Метод сжатия : С потерями
Размер потока : 144 Мбайт (20%)
Default : Да
Forced : Нет





Страна: США
Продолжительность: 4х00:45:00
Перевод: Дублированный (В.Курдов)
Файл
Кодек: x264
Качество: BDRip-AVC
Видео: MPEG4,1024 x 576, 23,976 fps, ~1750 Кб/сек
Звук: AC-3, 6 ch, 448 Кб/сек



В оригинальной дороге в центре только голос, поэтому он заменён полностью на голос В.Курдова.



Релиз от: &



   Похожие торренты   Торрент   Размер 
В этой теме нет новых непрочитанных сообщений. National Geographic. Дикая природа Америки / Untamed Americas [S01] (2012) BDRip 1080p | A1

16 | 8

20.79 ГБ

В этой теме нет новых непрочитанных сообщений. National Geographic. Дикая природа Америки / Untamed Americas (2012) HDRip от R.G.RealMT | A

3 | 2

2.92 ГБ

В этой теме нет новых непрочитанных сообщений. Дикая природа Америки / Untamed Americas [2 Disc Edition] (2012) | Blu-Ray 1080i AVC

0 | 2

66.11 ГБ

В этой теме нет новых непрочитанных сообщений. National Geographic. Супер паук / National Geographic. Super Spider (2012) HDTVRip - AVC от Тorrent-Хzona

179 | 7

593.4 МБ

В этой теме нет новых непрочитанных сообщений. National Geographic: Дикая природа России. Камчатка / National Geographic: Wild Russia. Kamchatka [02 из 06] (2009) HDTVRip от ExKinoRay

19 | 1

702.41 МБ

В этой теме нет новых непрочитанных сообщений. National Geographic: Дикая природа России. Сибирь / National Geographic: Wild Russia. Siberia [01 из 06] (2009) HDTVRip от ExKinoRay

45 | 5

699.41 МБ

В этой теме нет новых непрочитанных сообщений. National Geographic: Дикая природа России. Заполярье / National Geographic: Wild Russia. Arctic [03 из 06] (2009) HDTVRip от ExKinoRay

4 | 2

702.01 МБ




Вы не можете начинать темы
Вы не можете отвечать на сообщения
Вы не можете редактировать свои сообщения
Вы не можете удалять свои сообщения
Вы не можете добавлять вложения

Перейти:  
Для Мосгорсуда, Роскомнадзора и рекламодателей: mosgorsud-torrent[собачка]yandex.ru
 Вход
ppkBB3cker v.2 © 2008-2014 @ PPK
[ Time : 1.120s | 14 Queries | GZIP : Off ]

Торрент трекер RUTOR.IN, Не можете зайти на rutor.org? Какой новый адрес рутор? Какое зеркало рутор? Не работает rutor.org и зеркала? Тогда наш торрент специально для вас. Rutor.in неофициальное зеркало rutor. В случае если у Вас заблокирован rutor или вдруг Вы не можете на него зайти, то Вы без труда сможете скачать бесплатно и без рекламы последние новинки кино, игр, сериалов и прочего у нас, на Rutor.in. Не нужно использовать прокси, чтобы зайти на рутор, достаточно воспользоваться нашим ресурсом. Все новые фильмы, игры, сериалы, книги и музыка за 2013 и 2014 годы через торрент бесплатно. Скачивайте фильмы в хорошем качестве, игры для пк, xbox, playstation без регистрации. У нас вы найдете новые Зарубежные сериалы и Русские сериалы 2013, 2014, 2015 годов. Оставайтесь с нами, качайте любимые фильмы, игры, сериалы, книги и музыку.