img image001 image001 image001 image001 image001 image001 image001 image001 image001 image001 image001 image001 image001 image001 image001

Planets Sun Sun Sun
Статистика раздачи
Автор: Снежана | Размер: 8.62 ГБ | Добавлен: 24 июл 2013
Раздают: 2    Качают: 2
Скачать торрент
Скачать торрент
Описание торрента

СообщениеДобавлено: 24 июл 2013 

Шимпанзе / Chimpanzee
«For Oscar, every day is an adventure.»


#77

Страна: Танзания, США
Студия: Great Ape Productions
Жанр: документальный
Год выпуска: 2012
Продолжительность: 01:18:15

Перевод: русский дубляж [Лицензия, BD EUR]
Оригинальная аудиодорожка: английская
Русские субтитры: есть
Режиссер: Аластер Фовергилл, Марк Линфилд / Alastair Fothergill, Mark Linfield
Ведущий: Тим Аллен


«Шимпанзе» — это удивительная история личных побед и семейных отношений. В непролазных чащах дождевых лесов Африки вы познакомитесь с очаровательным молодым шимпанзе Оскаром, жизнь которого полна новых впечатлений. Весь мир кажется непоседе Оскару и его друзьям увлекательной игрой. Во всем животном царстве не найдется, пожалуй, более любопытных, игривых, всегда готовых к новым открытиям созданий, обожающих передразнивать всех вокруг. Необыкновенно четкие и детальные съемки позволят вам с близкого расстояния наблюдать за перемещениями Оскара и его семьи по огромному лесу, пережить многие драматические события их жизни. Эти отважные и обаятельные приматы обязательно покорят ваши сердца.

Тип релиза: BDRip 1080p
Контейнер: MKV
Видео кодек: x264
Аудио кодек: AC3
Видео: AVC / High@L4.1 / 2 pass / 23,976 fps / 1920x1080p (16:9) / 14,5 Mbps / 0.292
Аудио 1: AC3 / 5.1 ch / 640 kbps / Русский дубляж, BD EUR
Аудио 2: AC3 / 5.1 ch / 640 kbps / Английский original, BD EUR
Субтитры: [softsub SRT]
Русские Full, BD EUR
Английские Full, BD EUR
Английские SDH, BD EUR
Дополнительно: Сохранены оригинальные чаптеры как на Blu-ray
Рип (видеоряд) от: Killbrain


Раздача от:













x264 [info]: frame I:827 Avg QP:17.89 size:341416
x264 [info]: frame P:28236 Avg QP:20.05 size:149909
x264 [info]: frame B:83522 Avg QP:21.61 size: 47758

Общее
Уникальный идентификатор : 181572183990947794128954282157343406578 (0x889987D6D11F3DD5A9838DC89D3279F2)
Полное имя : F:Скачка торрентChimpanzee.2012.BDRip1080p(Killbrain).mkv
Формат : Matroska
Версия формата : Version 4 / Version 2
Размер файла : 8,62 Гбайт
Продолжительность : 1 ч. 18 м.
Общий поток : 15,8 Мбит/сек
Название фильма : Chimpanzee (2012) by Killbrain
Дата кодирования : UTC 2013-06-07 15:01:24
Программа кодирования : mkvmerge v6.2.0 ('Promised Land') built on Apr 28 2013 12:22:01
Библиотека кодирования : libebml v1.3.0 + libmatroska v1.4.0

Видео
Идентификатор : 1
Формат : AVC
Формат/Информация : Advanced Video Codec
Профиль формата : High@L4.1
Параметр CABAC формата : Да
Параметр ReFrames формата : 4 кадра
Идентификатор кодека : V_MPEG4/ISO/AVC
Продолжительность : 1 ч. 18 м.
Битрейт : 14,5 Мбит/сек
Ширина : 1920 пикселей
Высота : 1080 пикселей
Соотношение сторон : 16:9
Режим частоты кадров : Постоянный
Частота кадров : 23,976 кадра/сек
Цветовое пространство : YUV
Субдискретизация насыщенности : 4:2:0
Битовая глубина : 8 бит
Тип развёртки : Прогрессивная
Бит/(Пиксели*Кадры) : 0.292
Размер потока : 7,75 Гбайт (90%)
Заголовок : Chimpanzee (2012)
Библиотека кодирования : x264 core 132 r2310 76a5c3a
Настройки программы : cabac=1 / ref=4 / deblock=1:-2:-2 / analyse=0x3:0x113 / me=umh / subme=10 / psy=1 / psy_rd=1.00:0.15 / mixed_ref=1 / me_range=16 / chroma_me=1 / trellis=2 / 8x8dct=1 / cqm=0 / deadzone=21,11 / fast_pskip=0 / chroma_qp_offset=-3 / threads=3 / lookahead_threads=1 / sliced_threads=0 / nr=0 / decimate=0 / interlaced=0 / bluray_compat=0 / constrained_intra=0 / bframes=8 / b_pyramid=2 / b_adapt=2 / b_bias=0 / direct=3 / weightb=1 / open_gop=0 / weightp=2 / keyint=240 / keyint_min=24 / scenecut=40 / intra_refresh=0 / rc_lookahead=60 / rc=2pass / mbtree=0 / bitrate=14500 / ratetol=1.0 / qcomp=0.65 / qpmin=0 / qpmax=69 / qpstep=4 / cplxblur=20.0 / qblur=0.5 / vbv_maxrate=40000 / vbv_bufsize=30000 / nal_hrd=none / ip_ratio=1.40 / pb_ratio=1.30 / aq=1:0.80
Язык : English
Default : Да
Forced : Нет

Аудио #1
Идентификатор : 2
Формат : AC-3
Формат/Информация : Audio Coding 3
Расширение режима : CM (complete main)
Параметр Endianness формата : Big
Идентификатор кодека : A_AC3
Продолжительность : 1 ч. 18 м.
Вид битрейта : Постоянный
Битрейт : 640 Кбит/сек
Каналы : 6 каналов
Расположение каналов : Front: L C R, Side: L R, LFE
Частота : 48,0 КГц
Битовая глубина : 16 бит
Метод сжатия : С потерями
Размер потока : 358 Мбайт (4%)
Заголовок : AC3 / 5.1 ch / 640 kbps / Русский дубляж, BD EUR
Язык : Russian
Default : Да
Forced : Нет

Аудио #2
Идентификатор : 3
Формат : AC-3
Формат/Информация : Audio Coding 3
Расширение режима : CM (complete main)
Параметр Endianness формата : Big
Идентификатор кодека : A_AC3
Продолжительность : 1 ч. 18 м.
Вид битрейта : Постоянный
Битрейт : 640 Кбит/сек
Каналы : 6 каналов
Расположение каналов : Front: L C R, Side: L R, LFE
Частота : 48,0 КГц
Битовая глубина : 16 бит
Метод сжатия : С потерями
Размер потока : 358 Мбайт (4%)
Заголовок : AC3 / 5.1 ch / 640 kbps / Английский original, BD EUR
Язык : English
Default : Нет
Forced : Нет

Текст #1
Идентификатор : 4
Формат : UTF-8
Идентификатор кодека : S_TEXT/UTF8
Идентификатор кодека/Информация : UTF-8 Plain Text
Заголовок : FULL, BD EUR
Язык : Russian
Default : Нет
Forced : Нет

Текст #2
Идентификатор : 5
Формат : UTF-8
Идентификатор кодека : S_TEXT/UTF8
Идентификатор кодека/Информация : UTF-8 Plain Text
Заголовок : FULL, BD EUR
Язык : English
Default : Нет
Forced : Нет

Текст #3
Идентификатор : 6
Формат : UTF-8
Идентификатор кодека : S_TEXT/UTF8
Идентификатор кодека/Информация : UTF-8 Plain Text
Заголовок : SDH, BD EUR
Язык : English
Default : Нет
Forced : Нет

Меню
00:00:00.000 : :Chapter 01
00:03:41.387 : :Chapter 02
00:08:46.108 : :Chapter 03
00:13:32.645 : :Chapter 04
00:19:07.229 : :Chapter 05
00:25:03.585 : :Chapter 06
00:30:22.612 : :Chapter 07
00:33:15.284 : :Chapter 08
00:36:21.470 : :Chapter 09
00:39:11.640 : :Chapter 10
00:44:43.013 : :Chapter 11
00:47:24.424 : :Chapter 12
00:50:35.824 : :Chapter 13
00:53:40.884 : :Chapter 14
00:59:57.260 : :Chapter 15
01:05:05.902 : :Chapter 16
01:07:56.280 : :Chapter 17
01:11:43.132 : :Chapter 18




   Похожие торренты   Торрент   Размер 
В этой теме нет новых непрочитанных сообщений. Шимпанзе / Chimpanzee (2012) DVD9 R5 от Youtracker | D | лицензия

1 | 1

6.76 ГБ

В этой теме нет новых непрочитанных сообщений. Шимпанзе / Chimpanzee (2012) Blu-ray 1080p от Youtracker и HDCLUB | D

0 | 1

37.82 ГБ

В этой теме нет новых непрочитанных сообщений. Шимпанзе / Chimpanzee (2012) Blu-Ray 1080p от HDCLUB | P1

0 | 3

37.35 ГБ

В этой теме нет новых непрочитанных сообщений. Шимпанзе / Chimpanzee (2012) BDRip от HELLYWOOD

3 | 3

1.45 ГБ

В этой теме нет новых непрочитанных сообщений. Шимпанзе / Chimpanzee (2012) BDRip 720p от HDCLUB

0 | 2

5.82 ГБ

В этой теме нет новых непрочитанных сообщений. Шимпанзе / DisneyNature: Chimpanzee (2012) BDRip-AVC от Тorrent-Хzona | D

0 | 1

1.2 ГБ

В этой теме нет новых непрочитанных сообщений. Шимпанзе / Chimpanzee (2012) HDRip

0 | 2

1.37 ГБ




Вы не можете начинать темы
Вы не можете отвечать на сообщения
Вы не можете редактировать свои сообщения
Вы не можете удалять свои сообщения
Вы не можете добавлять вложения

Перейти:  
Для Мосгорсуда, Роскомнадзора и рекламодателей: mosgorsud-torrent[собачка]yandex.ru
 Вход
ppkBB3cker v.2 © 2008-2014 @ PPK
[ Time : 0.031s | 15 Queries | GZIP : Off ]

cron