img image001 image001 image001 image001 image001 image001 image001 image001 image001 image001 image001 image001 image001 image001 image001

Planets Sun Sun Sun
Статистика раздачи
Автор: Снежана | Размер: 1.4 ГБ | Добавлен: 24 июл 2013
Раздают: 38    Качают: 2
Скачать торрент
Скачать торрент
Описание торрента

СообщениеДобавлено: 24 июл 2013 


Инфомация о фильме
Название: Больше чем мёд
Оригинальное название: More than honey
Год выхода: 2012
Жанр: Документальный, животные
Режиссер: Маркус Имхоф / Markus Imhoof
О фильме
Документальный фильм о жизни пчел, об их загадочной массовой гибели в последние годы по всему миру, об опасностях, которые несет им сегодняшняя цивилизация, и о том неоценимом вкладе, который они вносят в обеспечение человечества продовольствием, участвуя в опылении сельхозкультур. Автор фильма берет интервью у ученых и описывает уникальное устройство пчелиной жизни, заглянув в самые укромные уголки улья и в неповторимый образ жизни пчел.



Страна: Швейцария, Германия, Австрия
Продолжительность: 01:31:28
Перевод: Любительский (двухголосый закадровый)
Доп. инфо о переводе: Франк Цветков и Ульяна Громова
Файл
Кодек: x264
Качество: BDRip-AVC
Видео: MPEG4, 1024 x 576, 25 fps, ~1750 Кб/сек
Звук: AC-3, 6 ch, 448 Кб/сек
Субтитры: Нет





Уникальный идентификатор : 176371587270750640149250341719830879302 (0x84AFEE9FD5B14B04A78B9CBDDE2EDC46)
Полное имя : D:More.than.honey.2012.x264.BDRip(AVC).by.Тorrent-Хzona.mkv
Формат : Matroska
Версия формата : Version 2
Размер файла : 1,40 Гбайт
Продолжительность : 1 ч. 31 м.
Общий поток : 2199 Кбит/сек
Дата кодирования : UTC 2013-06-08 07:14:12
Программа кодирования : mkvmerge v6.1.0 ('Old Devil') built on Mar 4 2013 09:10:42
Библиотека кодирования : libebml v1.3.0 + libmatroska v1.4.0
Видео
Идентификатор : 1
Формат : AVC
Формат/Информация : Advanced Video Codec
Профиль формата : High@L4.1
Параметр CABAC формата : Да
Параметр ReFrames формата : 5 кадров
Идентификатор кодека : V_MPEG4/ISO/AVC
Продолжительность : 1 ч. 31 м.
Битрейт : 1750 Кбит/сек
Ширина : 1024 пикселя
Высота : 576 пикселей
Соотношение сторон : 16:9
Режим частоты кадров : Постоянный
Частота кадров : 25,000 кадров/сек
Цветовое пространство : YUV
Субдискретизация насыщенности : 4:2:0
Битовая глубина : 8 бит
Тип развёртки : Прогрессивная
Бит/(Пиксели*Кадры) : 0.119
Размер потока : 1,09 Гбайт (78%)
Библиотека кодирования : x264 core 130 r2273 b3065e6
Настройки программы : cabac=1 / ref=5 / deblock=1:-2:-2 / analyse=0x3:0x111 / me=umh / subme=9 / psy=1 / psy_rd=0.00:0.10 / mixed_ref=1 / me_range=32 / chroma_me=1 / trellis=2 / 8x8dct=1 / cqm=0 / deadzone=21,11 / fast_pskip=0 / chroma_qp_offset=-1 / threads=4 / lookahead_threads=1 / sliced_threads=0 / nr=0 / decimate=1 / interlaced=0 / bluray_compat=0 / constrained_intra=0 / bframes=5 / b_pyramid=2 / b_adapt=0 / b_bias=0 / direct=1 / weightb=1 / open_gop=0 / weightp=2 / keyint=250 / keyint_min=25 / scenecut=40 / intra_refresh=0 / rc_lookahead=50 / rc=2pass / mbtree=1 / bitrate=1750 / ratetol=1.0 / qcomp=0.60 / qpmin=0 / qpmax=69 / qpstep=4 / cplxblur=20.0 / qblur=0.5 / ip_ratio=1.40 / aq=1:1.00
Default : Да
Forced : Нет
Аудио
Идентификатор : 2
Формат : AC-3
Формат/Информация : Audio Coding 3
Расширение режима : CM (complete main)
Параметр Endianness формата : Big
Идентификатор кодека : A_AC3
Продолжительность : 1 ч. 31 м.
Вид битрейта : Постоянный
Битрейт : 448 Кбит/сек
Каналы : 6 каналов
Расположение каналов : Front: L C R, Side: L R, LFE
Частота : 48,0 КГц
Битовая глубина : 16 бит
Метод сжатия : С потерями
Размер потока : 293 Мбайт (20%)
Default : Да
Forced : Нет



Релиз от:



   Похожие торренты   Торрент   Размер 
В этой теме нет новых непрочитанных сообщений. Медоеды: Змеиные убийцы / Honey Badgers of the Kalahari. Snake Killers (2001) DVDRip-AVC от Тorrent-Хzona

69 | 3

732.95 МБ

В этой теме нет новых непрочитанных сообщений. Муха / Eega (2012) BDRip-AVC от Тorrent-Хzona

74 | 5

1.94 ГБ

В этой теме нет новых непрочитанных сообщений. Черри / About Cherry (2012) BDRip-AVC от Тorrent-Хzona

10 | 1

1.61 ГБ

В этой теме нет новых непрочитанных сообщений. Преступник / Offender (2012) BDRip-AVC от Тorrent-Хzona

10 | 5

1.61 ГБ

В этой теме нет новых непрочитанных сообщений. Шимпанзе / DisneyNature: Chimpanzee (2012) BDRip-AVC от Тorrent-Хzona | D

0 | 1

1.2 ГБ

В этой теме нет новых непрочитанных сообщений. National Geographic: Дикая природа Америки / Untamed Americas [01-04 из 04] (2012) BDRip-AVC от Тorrent-Хzona | D

5 | 3

2.77 ГБ

В этой теме нет новых непрочитанных сообщений. Храбрые сердца: Морские обезьяны / Brave Hearts: Umizaru (2012) BDRip-AVC от Тorrent-Хzona

8 | 1

1.57 ГБ




Вы не можете начинать темы
Вы не можете отвечать на сообщения
Вы не можете редактировать свои сообщения
Вы не можете удалять свои сообщения
Вы не можете добавлять вложения

Перейти:  
Для Мосгорсуда, Роскомнадзора и рекламодателей: mosgorsud-torrent[собачка]yandex.ru
 Вход
ppkBB3cker v.2 © 2008-2014 @ PPK
[ Time : 0.058s | 15 Queries | GZIP : Off ]

Торрент трекер RUTOR.IN, Не можете зайти на rutor.org? Какой новый адрес рутор? Какое зеркало рутор? Не работает rutor.org и зеркала? Тогда наш торрент специально для вас. Rutor.in неофициальное зеркало rutor. В случае если у Вас заблокирован rutor или вдруг Вы не можете на него зайти, то Вы без труда сможете скачать бесплатно и без рекламы последние новинки кино, игр, сериалов и прочего у нас, на Rutor.in. Не нужно использовать прокси, чтобы зайти на рутор, достаточно воспользоваться нашим ресурсом. Все новые фильмы, игры, сериалы, книги и музыка за 2013 и 2014 годы через торрент бесплатно. Скачивайте фильмы в хорошем качестве, игры для пк, xbox, playstation без регистрации. У нас вы найдете новые Зарубежные сериалы и Русские сериалы 2013, 2014, 2015 годов. Оставайтесь с нами, качайте любимые фильмы, игры, сериалы, книги и музыку.
cron