img image001 image001 image001 image001 image001 image001 image001 image001 image001 image001 image001 image001 image001 image001 image001

Planets Sun Sun Sun
Статистика раздачи
Автор: Снежана | Размер: 381.42 МБ | Добавлен: 24 июл 2013
Раздают: 4    Качают: 1
Скачать торрент
Скачать торрент
Описание торрента

СообщениеДобавлено: 24 июл 2013 


Инфомация о фильме
Название: Морской лес
Оригинальное название: Sea Forest
Год выхода: 2005
Жанр: Документальный, видовой
Режиссер: Акира Камияма / Akira Kamiyama
Музыка: Ник Вуд / Nick Wood
О фильме
Демонстрационный фильм подводного мира под релаксирующую музыку.



Продолжительность: 00:25:00
Перевод: Не требуется
Файл
Кодек: x264
Качество: HDTVRip-AVC
Видео: MPEG4, 1024 x 576, 23.976 fps, ~1750 Кб/сек
Звук: AC-3, 2 ch, 384 Кб/сек
Субтитры: Нет




Уникальный идентификатор : 238162424538647373827766499936166241375 (0xB32C6A1CFAA09070AE94850C15B8645F)
Полное имя : D:Sea.Forest.2005.x264.HDTVRip.(AVC).by.Тorrent-Хzona.mkv
Формат : Matroska
Версия формата : Version 2
Размер файла : 381 Мбайт
Продолжительность : 25 м.
Общий поток : 2133 Кбит/сек
Дата кодирования : UTC 2013-06-10 08:50:27
Программа кодирования : mkvmerge v6.1.0 ('Old Devil') built on Mar 4 2013 09:10:42
Библиотека кодирования : libebml v1.3.0 + libmatroska v1.4.0
Видео
Идентификатор : 1
Формат : AVC
Формат/Информация : Advanced Video Codec
Профиль формата : High@L4.1
Параметр CABAC формата : Да
Параметр ReFrames формата : 5 кадров
Идентификатор кодека : V_MPEG4/ISO/AVC
Продолжительность : 25 м.
Битрейт : 1750 Кбит/сек
Ширина : 1024 пикселя
Высота : 576 пикселей
Соотношение сторон : 16:9
Режим частоты кадров : Постоянный
Частота кадров : 23,976 кадра/сек
Цветовое пространство : YUV
Субдискретизация насыщенности : 4:2:0
Битовая глубина : 8 бит
Тип развёртки : Прогрессивная
Бит/(Пиксели*Кадры) : 0.124
Размер потока : 305 Мбайт (80%)
Библиотека кодирования : x264 core 130 r2273 b3065e6
Настройки программы : cabac=1 / ref=5 / deblock=1:-2:-2 / analyse=0x3:0x111 / me=umh / subme=9 / psy=1 / psy_rd=0.00:0.10 / mixed_ref=1 / me_range=32 / chroma_me=1 / trellis=2 / 8x8dct=1 / cqm=0 / deadzone=21,11 / fast_pskip=0 / chroma_qp_offset=-1 / threads=4 / lookahead_threads=1 / sliced_threads=0 / nr=0 / decimate=1 / interlaced=0 / bluray_compat=0 / constrained_intra=0 / bframes=5 / b_pyramid=2 / b_adapt=0 / b_bias=0 / direct=1 / weightb=1 / open_gop=0 / weightp=2 / keyint=250 / keyint_min=23 / scenecut=40 / intra_refresh=0 / rc_lookahead=50 / rc=2pass / mbtree=1 / bitrate=1750 / ratetol=1.0 / qcomp=0.60 / qpmin=0 / qpmax=69 / qpstep=4 / cplxblur=20.0 / qblur=0.5 / ip_ratio=1.40 / aq=1:1.00
Default : Да
Forced : Нет
Аудио
Идентификатор : 2
Формат : AC-3
Формат/Информация : Audio Coding 3
Расширение режима : CM (complete main)
Параметр Endianness формата : Big
Идентификатор кодека : A_AC3
Продолжительность : 25 м.
Вид битрейта : Постоянный
Битрейт : 384 Кбит/сек
Каналы : 2 канала
Расположение каналов : Front: L R
Частота : 48,0 КГц
Битовая глубина : 16 бит
Метод сжатия : С потерями
Размер потока : 68,7 Мбайт (18%)
Default : Да
Forced : Нет



Релиз от:



   Похожие торренты   Торрент   Размер 
В этой теме нет новых непрочитанных сообщений. Лесной воин / Forest Warrior (1996) DVDRip-AVC от Тorrent-Хzona

12 | 5

1.39 ГБ

В этой теме нет новых непрочитанных сообщений. Военно-морской парад Черноморского флота в Севастополе (2008) DVDRip-AVC от Тorrent-Хzona

0 | 4

655.89 МБ

В этой теме нет новых непрочитанных сообщений. Крейсер: Михаил Кутузов - История морской славы России (2010) DVDRip-AVC от Тorrent-Хzona

0 | 1

342.64 МБ

В этой теме нет новых непрочитанных сообщений. Армия. Российская история XX столетия. Последний морской министр Империи (2003) DVDRip-AVC от Тorrent-Хzona

95 | 3

392.54 МБ

В этой теме нет новых непрочитанных сообщений. Дикий запад. Кино и реальность / The Wild And The West (2005) HDTVRip-AVC от Тorrent-Хzona

0 | 3

731.22 МБ

В этой теме нет новых непрочитанных сообщений. Муравьи: тайная сила природы / Ants: Natures secret power (2005) HDTVRip-AVC от Тorrent-Хzona

9 | 5

724.97 МБ

В этой теме нет новых непрочитанных сообщений. Правители Руси [Том 3] (2005) DVDRip-AVC от Тorrent-Хzona

10 | 3

2.35 ГБ




Вы не можете начинать темы
Вы не можете отвечать на сообщения
Вы не можете редактировать свои сообщения
Вы не можете удалять свои сообщения
Вы не можете добавлять вложения

Перейти:  
Для Мосгорсуда, Роскомнадзора и рекламодателей: mosgorsud-torrent[собачка]yandex.ru
 Вход
ppkBB3cker v.2 © 2008-2014 @ PPK
[ Time : 0.049s | 17 Queries | GZIP : Off ]

cron