img image001 image001 image001 image001 image001 image001 image001 image001 image001 image001 image001 image001 image001 image001 image001 image001

Planets Sun Sun Sun
Статистика раздачи
Автор: Снежана | Размер: 2.45 ГБ | Добавлен: 24 июл 2013
Раздают: 18    Качают: 5
Скачать торрент
Скачать торрент
Описание торрента

СообщениеДобавлено: 24 июл 2013 


Инфомация о фильме
Название: History Channel. Тайны древности. Расцвет и падение Спарты
Оригинальное название: Ancient Mysteries. Rise And Fall Of The Spartans
Год выхода: 1995
Жанр: Научно - популярный
Режиссер: Ричард Шмидт
О фильме
К ним относились с уважением и страхом. Они были античными воинами, которые придумали лагерь новобранцев, фронтальную атаку, государственное обучение, стиль жизни и эстетику, по сей день носящие их имя… это спартанцы. И это их история.
В период между восьмым и пятым веками до нашей эры Спарта была предметом зависти Греции, бывшей тогда скоплением нескольких сотен часто воюющих между собой городов-государств. Большинство греков восхищались спартанцами... и боялись их. Потому что у спартанцев была репутация воинов, Один только вид спартанской военной машины приводил многих в состояние паники. В сражениях в то время участвовало небольшое количество людей, и длились они недолго. Однако, в начале пятого века до нашей эры массивное вторжение с востока все изменило. Персия, огромная империя, мечтавшая о расширении территории, отправила в Грецию колоссальную армию численностью двести тысяч человек. Но греки - во главе со Спартой - приняли вызов...

Страна: США
Студия: Filmroos A&E Television Network (History Channel)
Продолжительность: 2 х 01:30:00
Перевод: Профессиональный (двухголосый)
Файл
Формат: MKV
Качество: DVDRip-AVC
Видео: MPEG4 AVC 768 x 576, 25.000 fps, 1750 - 1944 Кбит/сек
Звук: AC-3, 2 ch, 192 Кб/сек
Субтитры: Нет

General
Unique ID : 204839301750100987082658584608490038765 (0x9A1A9D500E070221A6BEDCD9107EA5ED)
Complete name : D:DownloadsAncient.Mysteries.Rise.And.Fall.Of.The.Spartans.1995.x264.DVDRip.(AVC).by.Тorrent-Хzona.torrentThe.Spartans.1.1995.x264.DVDRip.(AVC).by.Тorrent-Хzona.torrent.mkv
Format : Matroska
Format version : Version 2
File size : 1.23 GiB
Duration : 1h 30mn
Overall bit rate : 1 944 Kbps
Encoded date : UTC 2013-06-11 02:14:08
Writing application : mkvmerge v6.1.0 ('Old Devil') built on Mar 4 2013 09:10:42
Writing library : libebml v1.3.0 + libmatroska v1.4.0
Video
ID : 1
Format : AVC
Format/Info : Advanced Video Codec
Format profile : High@L4.1
Format settings, CABAC : Yes
Format settings, ReFrames : 4 frames
Codec ID : V_MPEG4/ISO/AVC
Duration : 1h 30mn
Bit rate : 1 750 Kbps
Width : 768 pixels
Height : 576 pixels
Display aspect ratio : 4:3
Frame rate mode : Constant
Frame rate : 25.000 fps
Color space : YUV
Chroma subsampling : 4:2:0
Bit depth : 8 bits
Scan type : Progressive
Bits/(Pixel*Frame) : 0.158
Stream size : 1.08 GiB (88%)
Writing library : x264 core 130 r2273 b3065e6
Encoding settings : cabac=1 / ref=3 / deblock=1:-2:-2 / analyse=0x3:0x111 / me=umh / subme=9 / psy=1 / psy_rd=1.00:0.15 / mixed_ref=1 / me_range=32 / chroma_me=1 / trellis=2 / 8x8dct=1 / cqm=0 / deadzone=21,11 / fast_pskip=0 / chroma_qp_offset=-3 / threads=3 / lookahead_threads=1 / sliced_threads=0 / nr=0 / decimate=1 / interlaced=0 / bluray_compat=0 / constrained_intra=0 / bframes=3 / b_pyramid=2 / b_adapt=0 / b_bias=0 / direct=1 / weightb=1 / open_gop=0 / weightp=2 / keyint=250 / keyint_min=25 / scenecut=40 / intra_refresh=0 / rc_lookahead=50 / rc=2pass / mbtree=1 / bitrate=1750 / ratetol=1.0 / qcomp=0.60 / qpmin=0 / qpmax=69 / qpstep=4 / cplxblur=20.0 / qblur=0.5 / ip_ratio=1.40 / aq=1:1.00
Default : Yes
Forced : No
Audio
ID : 2
Format : AC-3
Format/Info : Audio Coding 3
Mode extension : CM (complete main)
Format settings, Endianness : Big
Codec ID : A_AC3
Duration : 1h 30mn
Bit rate mode : Constant
Bit rate : 192 Kbps
Channel(s) : 2 channels
Channel positions : Front: L R
Sampling rate : 48.0 KHz
Bit depth : 16 bits
Compression mode : Lossy
Stream size : 124 MiB (10%)
Default : Yes
Forced : No



Релиз от: &



   Похожие торренты   Торрент   Размер 
В этой теме нет новых непрочитанных сообщений. History Channel. Тайны древности: Неизвестный Иисус / History Channel. The Unknown Jesus (1999) DVDRip от -=HD-NET=-

33 | 12

1.08 ГБ

В этой теме нет новых непрочитанных сообщений. Тайны древности / Ancient Mysteries [01-06 из 06] (2016) HDTVRip от Files-х

12 | 0

3.34 ГБ

В этой теме нет новых непрочитанных сообщений. Тайны древности / Ancient Mysteries [01-06 из 06] (2016) HDTVRip 720p от Files-x

4 | 3

6.87 ГБ

В этой теме нет новых непрочитанных сообщений. Тайны древности. Магия и чудеса Ветхого Завета / Mysteries of the Bible - Magic and miracles of the Old Testament (1998) DVDRip от -=HD-NET=

82 | 5

601.12 МБ

В этой теме нет новых непрочитанных сообщений. Взлет и падение Хейди Фляйс / Call Me: The Rise and Fall of Heidi Fleiss (2004) DVDRip | P

157 | 21

699.21 МБ

В этой теме нет новых непрочитанных сообщений. Взлет и падение Эль Чапо / The Rise And Fall Of El Chapo (2016) HDTV 1080i | P2

47 | 9

3.18 ГБ

В этой теме нет новых непрочитанных сообщений. History Channel. Рейхсканцелярия Гитлера / History Channel. Inside Hitler's Reich Chancellery (2013) HDTVRip от -=HD-NET=-

358 | 149

644.22 МБ




Вы не можете начинать темы
Вы не можете отвечать на сообщения
Вы не можете редактировать свои сообщения
Вы не можете удалять свои сообщения
Вы не можете добавлять вложения

Перейти:  
 Вход
ppkBB3cker v.2 © 2008-2014 @ PPK
[ Time : 0.025s | 17 Queries | GZIP : Off ]

cron