img image001 image001 image001 image001 image001 image001 image001 image001 image001 image001 image001 image001 image001 image001 image001

Planets Sun Sun Sun
Статистика раздачи
Автор: Снежана | Размер: 624.59 МБ | Добавлен: 25 июл 2013
Раздают: 2    Качают: 2
Скачать торрент
Скачать торрент
Описание торрента

СообщениеДобавлено: 25 июл 2013 


Инфомация о фильме
Название: Мегазаводы: суперавтомобили: Пагани
Оригинальное название: Megafactories: Supercars: Pagani
Год выхода: 2012
Жанр: Документальный
О фильме
Pagani Huayra (произносится «пагани уайра», с коротким «у», подобно английскому why) — эксклюзивный среднемоторный спортивный автомобиль итальянской марки Pagani. Начало производства - весна 2012 года. Плановый объём производства не превысит 20 автомобилей в год по цене от 1 млн евро (1,34 млн $). Huayra означает «ветер» в переводе с языка кечуа, древнего языка инков. Как и Zonda, Huayra использует V12 от Mercedes-AMG с углом развала цилиндров 60° и двумя турбокомпрессорами. В данной вариации двигатель развивает свыше 700 л. с. мощности и 900 Нм крутящего момента. Максимальная скорость заявлена производителем на уровне 370 км/ч, разгон от 0 до 100 км/ч на мокром покрытии автомобиль осуществляет за 3,3 с (не подтверждённые данные производителя). Коробка передач — секвентальная 7-ступенчатая. Сцепление — с двумя парами ведомый-ведущий диск. Настоящий шедевр автомобилестроения "Пагани" стоит более 1 млн. евро. Узнайте о том, как этот уникальный суперкар создается из 4700 частей.
Страна: США
Студия: National Geographic Channel
Продолжительность: 00:45:00
Перевод: Профессиональный (одноголосый)
Файл
Формат: MKV
Качество: HDTVRip-AVC
Видео: MPEG4 AVC 1024 x 576, 23.976 fps, 1750 - 1943 Кбит/сек
Звук: AC-3, 2 ch, 192 Кбит/сек
Субтитры: Нет

General
Unique ID : 184361070833435417196018244815751966602 (0x8AB2A6939A553B98AEA5030AF8136F8A)
Complete name : C:DownloadsГотовые фильмыMegafactories.Supercars.Pagani.2012.x264.HDTVRip.(AVC).by.Тorrent-Хzona.mkv
Format : Matroska
Format version : Version 2
File size : 625 MiB
Duration : 44mn 56s
Overall bit rate : 1 943 Kbps
Encoded date : UTC 2013-06-11 20:12:25
Writing application : mkvmerge v6.1.0 ('Old Devil') built on Mar 4 2013 09:10:42
Writing library : libebml v1.3.0 + libmatroska v1.4.0
Video
ID : 1
Format : AVC
Format/Info : Advanced Video Codec
Format profile : High@L4.1
Format settings, CABAC : Yes
Format settings, ReFrames : 4 frames
Codec ID : V_MPEG4/ISO/AVC
Duration : 44mn 56s
Bit rate : 1 750 Kbps
Width : 1 024 pixels
Height : 576 pixels
Display aspect ratio : 16:9
Frame rate mode : Constant
Frame rate : 25.000 fps
Color space : YUV
Chroma subsampling : 4:2:0
Bit depth : 8 bits
Scan type : Progressive
Bits/(Pixel*Frame) : 0.119
Stream size : 550 MiB (88%)
Writing library : x264 core 130 r2273 b3065e6
Encoding settings : cabac=1 / ref=3 / deblock=1:-2:-2 / analyse=0x3:0x111 / me=umh / subme=9 / psy=1 / psy_rd=1.00:0.15 / mixed_ref=1 / me_range=32 / chroma_me=1 / trellis=2 / 8x8dct=1 / cqm=0 / deadzone=21,11 / fast_pskip=0 / chroma_qp_offset=-3 / threads=12 / lookahead_threads=1 / sliced_threads=0 / nr=0 / decimate=1 / interlaced=0 / bluray_compat=0 / constrained_intra=0 / bframes=3 / b_pyramid=2 / b_adapt=0 / b_bias=0 / direct=1 / weightb=1 / open_gop=0 / weightp=2 / keyint=250 / keyint_min=25 / scenecut=40 / intra_refresh=0 / rc_lookahead=50 / rc=2pass / mbtree=1 / bitrate=1750 / ratetol=1.0 / qcomp=0.60 / qpmin=0 / qpmax=69 / qpstep=4 / cplxblur=20.0 / qblur=0.5 / ip_ratio=1.40 / aq=1:1.00
Default : Yes
Forced : No
Audio
ID : 2
Format : AC-3
Format/Info : Audio Coding 3
Mode extension : CM (complete main)
Format settings, Endianness : Big
Codec ID : A_AC3
Duration : 44mn 56s
Bit rate mode : Constant
Bit rate : 192 Kbps
Channel(s) : 2 channels
Channel positions : Front: L R
Sampling rate : 48.0 KHz
Bit depth : 16 bits
Compression mode : Lossy
Stream size : 61.7 MiB (10%)
Language : Russian
Default : Yes
Forced : No



Релиз от:



   Похожие торренты   Торрент   Размер 
В этой теме нет новых непрочитанных сообщений. National Geographic: Мегазаводы: Суперавтомобили: Пагани Уайра / Megafactories: Supercars: Pagani Huayra (2012) SATRip by Alex Smit

15 | 3

661.62 МБ

В этой теме нет новых непрочитанных сообщений. Мегазаводы: Суперавтомобили: Пагани Уайра / Megafactories: Supercars: Pagani Huayra (2012) HDTVRip 720p | P1

94 | 6

1013.23 МБ

В этой теме нет новых непрочитанных сообщений. National Geographic: Мегазаводы: Суперавтомобили: Лексус LFA / Megafactories: Supercars: Lexus LFA (2012) SATRip by Alex Smit

12 | 3

661.45 МБ

В этой теме нет новых непрочитанных сообщений. National Geographic: Мегазаводы: Суперавтомобили: Мустанг / Megafactories: Supercars: Mustang (2011) SATRip by Alex Smit

16 | 3

661.62 МБ

В этой теме нет новых непрочитанных сообщений. National Geographic: Мегазаводы: Суперавтомобили: Феррари ФФ / Megafactories: Supercars: Ferrari FF (2011) SATRip by Alex Smit

50 | 8

661.53 МБ

В этой теме нет новых непрочитанных сообщений. National Geographic: Мегазаводы: Суперавтомобили: Порше-911 / Megafactories: Supercars: Porsche 911 (2011) SATRip by Alex Smit

11 | 2

661.5 МБ

В этой теме нет новых непрочитанных сообщений. National Geographic: Мегазаводы: Суперавтомобили: Тесла Model S / Megafactories: Supercars: Tesla Model S (2012) SATRip by Alex Smit

39 | 3

661.24 МБ




Вы не можете начинать темы
Вы не можете отвечать на сообщения
Вы не можете редактировать свои сообщения
Вы не можете удалять свои сообщения
Вы не можете добавлять вложения

Перейти:  
Для Мосгорсуда, Роскомнадзора и рекламодателей: mosgorsud-torrent[собачка]yandex.ru
 Вход
ppkBB3cker v.2 © 2008-2014 @ PPK
[ Time : 1.261s | 14 Queries | GZIP : Off ]

Торрент трекер RUTOR.IN, Не можете зайти на rutor.org? Какой новый адрес рутор? Какое зеркало рутор? Не работает rutor.org и зеркала? Тогда наш торрент специально для вас. Rutor.in неофициальное зеркало rutor. В случае если у Вас заблокирован rutor или вдруг Вы не можете на него зайти, то Вы без труда сможете скачать бесплатно и без рекламы последние новинки кино, игр, сериалов и прочего у нас, на Rutor.in. Не нужно использовать прокси, чтобы зайти на рутор, достаточно воспользоваться нашим ресурсом. Все новые фильмы, игры, сериалы, книги и музыка за 2013 и 2014 годы через торрент бесплатно. Скачивайте фильмы в хорошем качестве, игры для пк, xbox, playstation без регистрации. У нас вы найдете новые Зарубежные сериалы и Русские сериалы 2013, 2014, 2015 годов. Оставайтесь с нами, качайте любимые фильмы, игры, сериалы, книги и музыку.