img image001 image001 image001 image001 image001 image001 image001 image001 image001 image001 image001 image001 image001 image001 image001

Planets Sun Sun Sun
Статистика раздачи
Автор: Снежана | Размер: 2.31 ГБ | Добавлен: 24 июл 2013
Раздают: 5    Качают: 4
Скачать торрент
Скачать торрент
Описание торрента

СообщениеДобавлено: 24 июл 2013 



Название: Секреты дикой Индии
Оригинальное название: Secrets of Wild India
Год выхода: 2011
Жанр: Документальный, научно-познавательный, фауна, природа

Индия, являющаяся домом для более чем миллиарда человек, имеет и дикие области, населенные великанами, хищниками и экзотическими существами. Легендарный натуралист сэр Дэвид Аттенборо в очередном фильме из серии "Дикая природа" расскажет о удивительной природе этой загадочной страны. Вы посмотрите на мир гигантских травоядных, обитающих в предгорьях Гималаев в Индии, глазами новорожденного слонёнка; окунетесь в суровые условия пустынь и соляных пустошей северо-запада Индии, где лишь самые выносливые животные могут выдерживать песчаные бури, засуху и зной; окажитесь на поле боя, где правят клыки и когти, хищники, такие как бенгальский тигр и красный волк, конкурируют за территорию, воду и пищу.

1: В царстве слонов / Elephant Kingdom
2: Хищники джунглей / Tiger Jungles
3: Львы пустыни / Desert Lions

Продолжительность: 3 серии ~ 00:48:01
Озвучивание: Авторский (одноголосый закадровый)
Недостающие в переводе фразы: (3 минуты на серию) переведены субтитрами.

Кодек: x264
Формат: MKV
Качество: BDRip-AVC
Видео: MPEG4 AVC, 1024x576, 2100 Кбит/сек, 25 кадров/сек
Аудио: AC3, 192 Kbps, 48.0 KHz, 2 канала
Субтитры: Есть

Уникальный идентификатор : 246546966695165083096285071842574307728 (0xB97B37F539ED910DA83BA2FEA87B9190)
Полное имя : D:Secrets.of.Wild.India.2011.x264.BDRip(AVC).by.Alex_STSecrets.of.Wild.India.E1.Elephant.Kingdom.2011.x264.BDRip(AVC).by.Alex_ST.mkv
Формат : Matroska
Версия формата : Version 2
Размер файла : 788 Мбайт
Продолжительность : 48 м.
Общий поток : 2294 Кбит/сек
Дата кодирования : UTC 2013-06-14 20:34:49
Программа кодирования : mkvmerge v6.1.0 ('Old Devil') built on Mar 4 2013 09:10:42
Библиотека кодирования : libebml v1.3.0 + libmatroska v1.4.0
Видео
Идентификатор : 1
Формат : AVC
Формат/Информация : Advanced Video Codec
Профиль формата : High@L4.1
Параметр CABAC формата : Да
Параметр ReFrames формата : 14 кадров
Идентификатор кодека : V_MPEG4/ISO/AVC
Продолжительность : 48 м.
Битрейт : 2100 Кбит/сек
Ширина : 1024 пикселя
Высота : 576 пикселей
Соотношение сторон : 16:9
Режим частоты кадров : Постоянный
Частота кадров : 25,000 кадров/сек
Цветовое пространство : YUV
Субдискретизация насыщенности : 4:2:0
Битовая глубина : 8 бит
Тип развёртки : Прогрессивная
Бит/(Пиксели*Кадры) : 0.142
Размер потока : 706 Мбайт (90%)
Библиотека кодирования : x264 core 130 r2273 b3065e6
Настройки программы : cabac=1 / ref=14 / deblock=1:-1:-1 / analyse=0x3:0x133 / me=umh / subme=10 / psy=1 / psy_rd=1.00:0.10 / mixed_ref=1 / me_range=24 / chroma_me=1 / trellis=2 / 8x8dct=1 / cqm=0 / deadzone=21,11 / fast_pskip=1 / chroma_qp_offset=-3 / threads=4 / lookahead_threads=1 / sliced_threads=0 / nr=0 / decimate=1 / interlaced=0 / bluray_compat=0 / constrained_intra=0 / bframes=8 / b_pyramid=2 / b_adapt=2 / b_bias=0 / direct=3 / weightb=1 / open_gop=0 / weightp=2 / keyint=250 / keyint_min=25 / scenecut=40 / intra_refresh=0 / rc_lookahead=60 / rc=2pass / mbtree=1 / bitrate=2100 / ratetol=1.0 / qcomp=0.60 / qpmin=0 / qpmax=69 / qpstep=4 / cplxblur=20.0 / qblur=0.5 / ip_ratio=1.40 / aq=1:1.00
Default : Да
Forced : Нет
Аудио
Идентификатор : 2
Формат : AC-3
Формат/Информация : Audio Coding 3
Расширение режима : CM (complete main)
Параметр Endianness формата : Big
Идентификатор кодека : A_AC3
Продолжительность : 48 м.
Вид битрейта : Постоянный
Битрейт : 192 Кбит/сек
Каналы : 2 канала
Расположение каналов : Front: L R
Частота : 48,0 КГц
Битовая глубина : 16 бит
Метод сжатия : С потерями
Размер потока : 65,9 Мбайт (8%)
Язык : Russian
Default : Да
Forced : Нет



Релиз от:



   Похожие торренты   Торрент   Размер 
В этой теме нет новых непрочитанных сообщений. National Geographic: Секреты дикой Индии / National Geographic: Secrets of Wild India [01-03 из 03] (2011) HDRip от R.G.RealMT | А

3 | 2

2.32 ГБ

В этой теме нет новых непрочитанных сообщений. Секреты дикой Индии / Secrets of Wild India [01-03 серии из 03] (2011) BDRip 1080p от Freeisland

4 | 4

8.14 ГБ

В этой теме нет новых непрочитанных сообщений. National Geographic. Дикая Австралия / National Geographic. Wild Australia [Серии 1, 3, 4 из 4] (2014) HDTVRip от HitWay | D

85 | 24

1.58 ГБ

В этой теме нет новых непрочитанных сообщений. National Geographic : Взгляд изнутри . Секреты зоны 51 / Inside . Area 51’s Secrets (2010) SATRip by Alex Smit

9 | 5

661.43 МБ

В этой теме нет новых непрочитанных сообщений. National Geographic. Дикие животные Севера / National Geographic. Nordic Wild [01-04 из 04] (2011) HDTV 1080i

25 | 6

9.27 ГБ

В этой теме нет новых непрочитанных сообщений. National Geographic: Дикий Запад / National Geographic: The Wild West (2012) BDRip 720p

62 | 13

7.7 ГБ

В этой теме нет новых непрочитанных сообщений. National Geographic: Удивительная планета (3 серии из 3) / National Geographic: Amazing Planet (2006) BDRip 1080p от FREEISLAND

10 | 8

6.56 ГБ




Вы не можете начинать темы
Вы не можете отвечать на сообщения
Вы не можете редактировать свои сообщения
Вы не можете удалять свои сообщения
Вы не можете добавлять вложения

Перейти:  
Для Мосгорсуда, Роскомнадзора и рекламодателей: mosgorsud-torrent[собачка]yandex.ru
 Вход
ppkBB3cker v.2 © 2008-2014 @ PPK
[ Time : 0.043s | 17 Queries | GZIP : Off ]

cron