img image001 image001 image001 image001 image001 image001 image001 image001 image001 image001 image001 image001 image001 image001 image001

Planets Sun Sun Sun
Статистика раздачи
Автор: Снежана | Размер: 2.37 ГБ | Добавлен: 25 июл 2013
Раздают: 8    Качают: 5
Скачать торрент
Скачать торрент
Описание торрента

СообщениеДобавлено: 25 июл 2013 


Инфомация о фильме
Название: Тайны древности. Варвары
Оригинальное название: History Channel. Barbarians
Год выхода: 2004
Жанр: Документальный, история
Содержание:

После того, как в конце XX века в Норвегии было найдено судно викингов, у историков уже не осталось сомнений, что цивилизация викингов это не миф, а самая настоящая реальность. Какими же были викинги на самом деле? Куда бы они не отправлялись - на Британские острова , во Францию, Испанию, Италию или Северную Африку - они безжалостно грабили и захватывали чужие земли. В некоторых случаях они поселялись в завоеванных странах и становились их правителями. Викинги были последними германскими варварами-завоевателями и первыми европейскими мореплавателями-первопроходцами.


Еще в стародавние времена осевшие народы Старого Света, занимавшиеся в основном сельским хозяйством, жили в страхе перед племенами с совершенно иным образом жизни. Это были монгольские племена скотоводов-кочевников, перегонявших свои стада с одного пастбища на другое по мере смены времен года.
Основатель и великий хан Монгольской Империи - Темуджин, еще мальчиком оставшийся без отца, вырос непреклонным и жестоким человеком. Устранив всех своих соперников, он объединил татаро-монгольские племена под своим единоличным правлением и создал фанатично преданную ему и дисциплинированную армию. В 1206 году его провозгласили Чингисханом, что означает "властелин мира". Чингисхан сделал немало для того, чтобы оправдать свое имя. Организатор военных походов против стран Азии и Востока Европы, сопровождавшихся опустошениями и гибелью целых народов, что привело к установлению татаро-монгольского ига в завоеванных землях, Чингисхан навеки вписал свое имя в мировую историю.





Гунны - воинственное кочевое племя, которое возникло в ходе миграции части северных хунну из Центральной и Средней Азии в Приуралье, а затем Поволжье, которые объединились с угорскими и самарскими племенами. По свидетельствам историков воинов гуннов отличали: невысокий рост, плечистое сложение, большая голова, плоское широкое лицо, узкие глаза, приплюснутый нос и смуглый цвет кожи. Гунны совершали набеги в низовья Дона и Прикубанье, в Византию, страны Закавказья, Малой Азии, Ближнего Востока. В первой трети V в. захватили Паннонию (Подунавье), куда переместилась ставка вождя. Наибольшего могущества гунны достигли в правление вождя Атиллы.




Готы, одно из крупных германских племен, первоначально жили в Скандинавии, откуда к I в. н. э. переселились на южный берег Балтийского моря. К середине II в. готы, будучи полуоседлым земледельческо-скотоводческим народом, начали движение на юг. По пути переселения они присоединяли к себе более мелкие германские и славянские племена, которые также уходили вместе с ними на юг. К середине III в. они образовали два племенных союза - вестготов (западных готов) и остготов (восточных готов). Готы были умелыми и отважными воинами. Готские племена сыграли немаловажную роль в ослаблении Римской империи..



Страна: США
Продолжительность: 4 x ~ 00:50:00
Перевод: Профессиональный (многоголосый, закадровый)
Файл
Формат: MKV
Качество: DVDRip-AVC
Видео: MPEG4 AVC 1024 x 776, 25.000 fps, 1750 - 1944 Кбит/сек
Звук: AC-3, 2 ch, 192 Кбит/сек
Субтитры: Нет


General
Unique ID : 242658692985131995047392284230740071860 (0xB68E5D4353F69036972D6174FE7BD5B4)
Complete name : C:DownloadsГотовые фильмыHistory Channel.Barbarians.2004.DVDRip-AVC от Тorrent-Хzona�1.The.Vikings.2004.DVDRip-AVC от Тorrent-Хzona.mkv
Format : Matroska
Format version : Version 2
File size : 609 MiB
Duration : 43mn 46s
Overall bit rate : 1 944 Kbps
Encoded date : UTC 2013-06-15 15:17:20
Writing application : mkvmerge v6.1.0 ('Old Devil') built on Mar 4 2013 09:10:42
Writing library : libebml v1.3.0 + libmatroska v1.4.0
Video
ID : 1
Format : AVC
Format/Info : Advanced Video Codec
Format profile : High@L4.1
Format settings, CABAC : Yes
Format settings, ReFrames : 4 frames
Codec ID : V_MPEG4/ISO/AVC
Duration : 43mn 46s
Bit rate : 1 750 Kbps
Width : 1 024 pixels
Height : 776 pixels
Display aspect ratio : 4:3
Frame rate mode : Constant
Frame rate : 25.000 fps
Color space : YUV
Chroma subsampling : 4:2:0
Bit depth : 8 bits
Scan type : Progressive
Bits/(Pixel*Frame) : 0.088
Stream size : 536 MiB (88%)
Writing library : x264 core 130 r2273 b3065e6
Encoding settings : cabac=1 / ref=3 / deblock=1:-2:-2 / analyse=0x3:0x111 / me=umh / subme=9 / psy=1 / psy_rd=1.00:0.15 / mixed_ref=1 / me_range=32 / chroma_me=1 / trellis=2 / 8x8dct=1 / cqm=0 / deadzone=21,11 / fast_pskip=0 / chroma_qp_offset=-3 / threads=12 / lookahead_threads=1 / sliced_threads=0 / nr=0 / decimate=1 / interlaced=0 / bluray_compat=0 / constrained_intra=0 / bframes=3 / b_pyramid=2 / b_adapt=0 / b_bias=0 / direct=1 / weightb=1 / open_gop=0 / weightp=2 / keyint=250 / keyint_min=25 / scenecut=40 / intra_refresh=0 / rc_lookahead=50 / rc=2pass / mbtree=1 / bitrate=1750 / ratetol=1.0 / qcomp=0.60 / qpmin=0 / qpmax=69 / qpstep=4 / cplxblur=20.0 / qblur=0.5 / ip_ratio=1.40 / aq=1:1.00
Default : Yes
Forced : No
Audio
ID : 2
Format : AC-3
Format/Info : Audio Coding 3
Mode extension : CM (complete main)
Format settings, Endianness : Big
Codec ID : A_AC3
Duration : 43mn 46s
Bit rate mode : Constant
Bit rate : 192 Kbps
Channel(s) : 2 channels
Channel positions : Front: L R
Sampling rate : 48.0 KHz
Bit depth : 16 bits
Compression mode : Lossy
Stream size : 60.1 MiB (10%)
Default : Yes
Forced : No



Релиз от:



   Похожие торренты   Торрент   Размер 
В этой теме нет новых непрочитанных сообщений. Тайны древности: Варвары / History Channel: Ancient Mysteries: Barbarians (2003) DVDRip

12 | 3

2.74 ГБ

В этой теме нет новых непрочитанных сообщений. History Channel. Тайны древности: Неизвестный Иисус / The unknown Jesus (1999) DVDRip-AVC от Тorrent-Хzona

0 | 8

1.22 ГБ

В этой теме нет новых непрочитанных сообщений. History Channel. Тайны древности. Самураи / Ancient Mysteries: Samurai! (1997) DVDRip-AVC от Тorrent-Хzona

10 | 1

636.99 МБ

В этой теме нет новых непрочитанных сообщений. History Channel. Тайны древности. Затерянный город пиратов / Ancient Mysteries. Lost City Of Pirates (1997) DVDRip-AVC от Тorrent-Хzona

9 | 4

631.09 МБ

В этой теме нет новых непрочитанных сообщений. History Channel. Тайны древности. Расцвет и падение Спарты / Ancient Mysteries. Rise And Fall Of The Spartans (1995) DVDRip-AVC от Тorrent-Хzona

18 | 5

2.45 ГБ

В этой теме нет новых непрочитанных сообщений. History Channel. Тайны древности: Неизвестный Иисус / History Channel. The Unknown Jesus (1999) DVDRip от -=HD-NET=-

58 | 12

1.08 ГБ

В этой теме нет новых непрочитанных сообщений. History Channel: Загадки Библии: Коллекционное издание / History Channel: Mysteries of the Bible (1994-1998) DVDRip-AVC от Тorrent-Хzona

38 | 12

2.33 ГБ




Вы не можете начинать темы
Вы не можете отвечать на сообщения
Вы не можете редактировать свои сообщения
Вы не можете удалять свои сообщения
Вы не можете добавлять вложения

Перейти:  
Для Мосгорсуда, Роскомнадзора и рекламодателей: mosgorsud-torrent[собачка]yandex.ru
 Вход
ppkBB3cker v.2 © 2008-2014 @ PPK
[ Time : 0.039s | 14 Queries | GZIP : Off ]

Торрент трекер RUTOR.IN, Не можете зайти на rutor.org? Какой новый адрес рутор? Какое зеркало рутор? Не работает rutor.org и зеркала? Тогда наш торрент специально для вас. Rutor.in неофициальное зеркало rutor. В случае если у Вас заблокирован rutor или вдруг Вы не можете на него зайти, то Вы без труда сможете скачать бесплатно и без рекламы последние новинки кино, игр, сериалов и прочего у нас, на Rutor.in. Не нужно использовать прокси, чтобы зайти на рутор, достаточно воспользоваться нашим ресурсом. Все новые фильмы, игры, сериалы, книги и музыка за 2013 и 2014 годы через торрент бесплатно. Скачивайте фильмы в хорошем качестве, игры для пк, xbox, playstation без регистрации. У нас вы найдете новые Зарубежные сериалы и Русские сериалы 2013, 2014, 2015 годов. Оставайтесь с нами, качайте любимые фильмы, игры, сериалы, книги и музыку.