img image001 image001 image001 image001 image001 image001 image001 image001 image001 image001 image001 image001 image001 image001 image001

Planets Sun Sun Sun
Статистика раздачи
Автор: Снежана | Размер: 20.89 ГБ | Добавлен: 25 июл 2013
Раздают: 7    Качают: 3
Скачать торрент
Скачать торрент
Описание торрента

СообщениеДобавлено: 25 июл 2013 

#77

Информация о фильме
Название: Чудеса жизни
Оригинальное название: Wonders of Life
Год выхода: 2013
Жанр: Документальный, научно-познавательный, исследование, флора, фауна
Режиссер: Гедеон Буркхард
В ролях: Брайан Кокс

О фильме:
Этот сериал повествует о том, как 3.7 миллиарда лет назад некоторые фундаментальные законы породили самую сложную, разнообразную и уникальную силу во вселенной - жизнь. Свет, гравитация, время, материя и энергия послужили строительными кирпичиками всего сущего, от мельчайшего микроорганизма на Земле до самой большой галактики. В настоящее время, как предполагают, на Земле существует целых 100 миллионов различных биологических видов. "Чудеса жизни" рассказывают историю удивительного разнообразия и приспособляемости жизни в связи с закономерностями, которые ею управляют. От движения хромосом при делении клетки до электрической искры, вызывающей сокращение мускулов, этот сериал раскрывает секреты жизни в самых неожиданных местах и самых ошеломительных подробностях. Вы будете поражены изобретательностью природы и совершите грандиозное путешествие от истоков жизни к нашему собственному существованию.

Страна: Великобритания
Студия: BBC
Продолжительность: ~ 00:59:32
Перевод: Профессиональный одноголосый закадровый, студия «Омикрон»|

Файл
Кодек: MPEG-4 AVC
Качество: BDRip 1080p Рип от DON!
Видео: ~ 19.9 Мбит/с, 1920x1080, 25 кадр/с
Звук: Русский (DTS, 2 ch, 1536 Кбит/с), (AC3, 2 ch, 192 Кбит/с), английский (DTS, 2 ch, 1536 Кбит/с)
Субтитры: Русские, английские
Общее
Уникальный идентификатор : 182837131912138797698679018093092566219 (0x898D26963629B1E1BF0B4F3C33A074CB)
Полное имя : Wonders.of.Life.2012.1080p.DeathN2Wonders.of.Life.E01.What is Life.BDRip.1080p.mkv
Формат : Matroska
Версия формата : Version 4 / Version 2
Размер файла : 9,79 Гбайт
Продолжительность : 59 м.
Общий поток : 23,5 Мбит/сек
Название фильма : Created by DeathN2 for Кинозал.ТВ
Дата кодирования : UTC 2013-05-03 08:47:46
Программа кодирования : mkvmerge v6.2.0 ('Promised Land') built on Apr 28 2013 12:22:01
Библиотека кодирования : libebml v1.3.0 + libmatroska v1.4.0

Видео
Идентификатор : 1
Формат : AVC
Формат/Информация : Advanced Video Codec
Профиль формата : High@L4.1
Параметр CABAC формата : Да
Параметр ReFrames формата : 4 кадра
Идентификатор кодека : V_MPEG4/ISO/AVC
Продолжительность : 59 м.
Битрейт : 19,9 Мбит/сек
Ширина : 1920 пикселей
Высота : 1080 пикселей
Соотношение сторон : 16:9
Режим частоты кадров : Постоянный
Частота кадров : 25,000 кадров/сек
Цветовое пространство : YUV
Субдискретизация насыщенности : 4:2:0
Битовая глубина : 8 бит
Тип развёртки : Прогрессивная
Бит/(Пиксели*Кадры) : 0.383
Размер потока : 8,26 Гбайт (84%)
Заголовок : E01. What is Life
Библиотека кодирования : x264 core 130 r2273kMod b3065e6
Настройки программы : cabac=1 / ref=4 / deblock=1:-3:-3 / analyse=0x3:0x133 / me=umh / subme=10 / psy=1 / fade_compensate=0.00 / psy_rd=1.00:0.00 / mixed_ref=1 / me_range=32 / chroma_me=1 / trellis=2 / 8x8dct=1 / cqm=0 / deadzone=21,11 / fast_pskip=0 / chroma_qp_offset=-2 / threads=6 / lookahead_threads=1 / sliced_threads=0 / nr=0 / decimate=1 / interlaced=0 / bluray_compat=0 / constrained_intra=0 / bframes=7 / b_pyramid=2 / b_adapt=2 / b_bias=0 / direct=3 / weightb=1 / open_gop=0 / weightp=2 / keyint=250 / keyint_min=25 / scenecut=40 / intra_refresh=0 / rc_lookahead=60 / rc=crf / mbtree=0 / crf=16.8000 / qcomp=0.60 / qpmin=0 / qpmax=69 / qpstep=4 / vbv_maxrate=50000 / vbv_bufsize=62500 / crf_max=0.0 / nal_hrd=none / ip_ratio=1.40 / pb_ratio=1.30 / aq=3:0.75
Язык : English
Default : Да
Forced : Нет

Аудио #1
Идентификатор : 2
Формат : DTS
Формат/Информация : Digital Theater Systems
Режим : 16
Параметр Endianness формата : Big
Идентификатор кодека : A_DTS
Продолжительность : 59 м.
Вид битрейта : Постоянный
Битрейт : 1509 Кбит/сек
Каналы : 2 канала
Расположение каналов : Front: L R
Частота : 48,0 КГц
Битовая глубина : 16 бит
Метод сжатия : С потерями
Размер потока : 643 Мбайт (6%)
Заголовок : DTS 2.0 @ 1536 kbps
Язык : Russian
Default : Да
Forced : Нет

Аудио #2
Идентификатор : 3
Формат : AC-3
Формат/Информация : Audio Coding 3
Расширение режима : CM (complete main)
Параметр Endianness формата : Big
Идентификатор кодека : A_AC3
Продолжительность : 59 м.
Вид битрейта : Постоянный
Битрейт : 192 Кбит/сек
Каналы : 2 канала
Расположение каналов : Front: L R
Частота : 48,0 КГц
Битовая глубина : 16 бит
Метод сжатия : С потерями
Размер потока : 81,8 Мбайт (1%)
Заголовок : AC3 2.0 @ 192 kbps
Язык : Russian
Default : Нет
Forced : Нет

Аудио #3
Идентификатор : 4
Формат : DTS
Формат/Информация : Digital Theater Systems
Режим : 16
Параметр Endianness формата : Big
Идентификатор кодека : A_DTS
Продолжительность : 59 м.
Вид битрейта : Постоянный
Битрейт : 1509 Кбит/сек
Каналы : 2 канала
Расположение каналов : Front: L R
Частота : 48,0 КГц
Битовая глубина : 16 бит
Метод сжатия : С потерями
Размер потока : 643 Мбайт (6%)
Заголовок : DTS 2.0 @ 1536 kbps
Язык : English
Default : Нет
Forced : Нет

Текст #1
Идентификатор : 5
Формат : UTF-8
Идентификатор кодека : S_TEXT/UTF8
Идентификатор кодека/Информация : UTF-8 Plain Text
Язык : Russian
Default : Да
Forced : Нет

Текст #2
Идентификатор : 6
Формат : UTF-8
Идентификатор кодека : S_TEXT/UTF8
Идентификатор кодека/Информация : UTF-8 Plain Text
Заголовок : English
Язык : English
Default : Нет
Forced : Нет

Меню
00:00:00.000 : :00:00:00.000
00:12:55.600 : :00:12:55.600
00:25:18.360 : :00:25:18.360
00:34:53.680 : :00:34:53.680
00:46:23.400 : :00:46:23.400








Перевод Михаила Халецкого. Озвучено студией «Омикрон» специально для HDCLUB.

Задействован 1 актер.
Русская дорожка получена наложением чистого голоса.
Перевод и озвучивание осуществлено в рамках сервиса "Озвучивание". Спонсоры: Turko, tambov68, vwzt, LibrarianA, RomanTar, gelom, Snow_Leopard, krashchiy, piupiu, MUSIC, marazmat, Baron0580, RAUL, KarAl, DeTorquemada, zlodei24.



   Похожие торренты   Торрент   Размер 
В этой теме нет новых непрочитанных сообщений. Чудеса жизни / Wonders of Life [01-05 из 05] (2013) BDRip 1080p

13 | 18

52.98 ГБ

В этой теме нет новых непрочитанных сообщений. Чудеса жизни / Wonders of Life [01-03 из 05] (2013) BDRip 1080p

0 | 1

31.14 ГБ

В этой теме нет новых непрочитанных сообщений. Чудеса жизни / Wonders of Life [01-04 из 05] (2013) BDRip 1080p

8 | 23

41.88 ГБ

В этой теме нет новых непрочитанных сообщений. Чудеса жизни / Wonders of Life [01-04 из 05] (2013) BDRip 720p от HDClub

20 | 40

21.3 ГБ

В этой теме нет новых непрочитанных сообщений. Чудеса жизни / Wonders of Life [01-03 из 05] (2013) BDRip 720p от HDClub

0 | 1

15.96 ГБ

В этой теме нет новых непрочитанных сообщений. Чудеса жизни / Wonders of Life [01-05 из 05] (2013) BDRip 720p от HDClub

27 | 25

26.69 ГБ

В этой теме нет новых непрочитанных сообщений. Чудеса жизни / Wonders of Life [01-02 из 05] (2013) BDRip 720p от HDClub

10 | 3

10.8 ГБ




Вы не можете начинать темы
Вы не можете отвечать на сообщения
Вы не можете редактировать свои сообщения
Вы не можете удалять свои сообщения
Вы не можете добавлять вложения

Перейти:  
Для Мосгорсуда, Роскомнадзора и рекламодателей: mosgorsud-torrent[собачка]yandex.ru
 Вход
ppkBB3cker v.2 © 2008-2014 @ PPK
[ Time : 1.566s | 14 Queries | GZIP : Off ]

Торрент трекер RUTOR.IN, Не можете зайти на rutor.org? Какой новый адрес рутор? Какое зеркало рутор? Не работает rutor.org и зеркала? Тогда наш торрент специально для вас. Rutor.in неофициальное зеркало rutor. В случае если у Вас заблокирован rutor или вдруг Вы не можете на него зайти, то Вы без труда сможете скачать бесплатно и без рекламы последние новинки кино, игр, сериалов и прочего у нас, на Rutor.in. Не нужно использовать прокси, чтобы зайти на рутор, достаточно воспользоваться нашим ресурсом. Все новые фильмы, игры, сериалы, книги и музыка за 2013 и 2014 годы через торрент бесплатно. Скачивайте фильмы в хорошем качестве, игры для пк, xbox, playstation без регистрации. У нас вы найдете новые Зарубежные сериалы и Русские сериалы 2013, 2014, 2015 годов. Оставайтесь с нами, качайте любимые фильмы, игры, сериалы, книги и музыку.