img image001 image001 image001 image001 image001 image001 image001 image001 image001 image001 image001 image001 image001 image001 image001

Planets Sun Sun Sun
Статистика раздачи
Автор: Снежана | Размер: 1.45 ГБ | Добавлен: 25 июл 2013
Раздают: 26    Качают: 7
Скачать торрент
Скачать торрент
Описание торрента

СообщениеДобавлено: 25 июл 2013 

Живые Пейзажи: Коста-Рика / Living Landscapes: Costa Rica (2007) BDRip
Релиз от HQ-ViDEO

Информация о фильме:
Название: Живые Пейзажи: Коста-Рика
Оригинальное название: Living Landscapes: Costa Rica
Год выхода: 2007
Жанр: Документальный, Музыкальный
Режиссёр: Майкл Хьюман /Michael Heumann/
Сюжет фильма:
Магия влажных лесов Коста-Рики в сопровождении оригинальной музыкы. Посетите полуостров Оса, спуск в Монте-Верде и другие удивительные места одного из самых красивейших мест Земли - Коста-Рика.
Продолжительность: 01:00:32
Перевод: Не требуется (Музыка, Звуки природы)
Информация о файле:
Качество: BDRip
Файл: AVI
Кодек: XviD, build 50 codec
Видео: 720 x 400, 1.80:1; 23.976 fps; ~ 2528 kbps; 0.37 bit/pixel
Аудио #1: 48 kHz, AC3 Dolby Digital, 3/2 (L,C,R,l,r) + LFE ch, ~448.00 kbps avg | Music
Аудио #2: 48 kHz, AC3 Dolby Digital, 3/2 (L,C,R,l,r) + LFE ch, ~448.00 kbps avg | Sound of nature
Размер: 1489.02 Mb (1/3 )

Complete name : E:фильмыKosta.Rika.2007.DUAL.BDRip.XviD.AC3.-HQ-ViDEO.avi
Format : AVI
Format/Info : Audio Video Interleave
File size : 1.45 GiB
Duration : 1h 0mn
Overall bit rate : 3 439 Kbps
Writing application : VirtualDubMod 1.5.10.2 (build 2542/release)
Writing library : VirtualDubMod build 2542/release
Video
ID : 0
Format : MPEG-4 Visual
Format profile : Advanced Simple@L5
Format settings, BVOP : 1
Format settings, QPel : No
Format settings, GMC : No warppoints
Format settings, Matrix : Custom
Codec ID : XVID
Codec ID/Hint : XviD
Duration : 1h 0mn
Bit rate : 2 529 Kbps
Width : 720 pixels
Height : 400 pixels
Display aspect ratio : 16:9
Frame rate : 23.976 fps
Color space : YUV
Chroma subsampling : 4:2:0
Bit depth : 8 bits
Scan type : Progressive
Compression mode : Lossy
Bits/(Pixel*Frame) : 0.366
Stream size : 1.07 GiB (74%)
Writing library : XviD 1.2.1 (UTC 2008-12-04)
Audio #1
ID : 1
Format : AC-3
Format/Info : Audio Coding 3
Mode extension : CM (complete main)
Codec ID : 2000
Duration : 1h 0mn
Bit rate mode : Constant
Bit rate : 448 Kbps
Channel(s) : 6 channels
Channel positions : Front: L C R, Side: L R, LFE
Sampling rate : 48.0 KHz
Bit depth : 16 bits
Compression mode : Lossy
Stream size : 194 MiB (13%)
Alignment : Split accross interleaves
Interleave, duration : 42 ms (1.00 video frame)
Interleave, preload duration : 500 ms
Audio #2
ID : 2
Format : AC-3
Format/Info : Audio Coding 3
Mode extension : CM (complete main)
Codec ID : 2000
Duration : 1h 0mn
Bit rate mode : Constant
Bit rate : 448 Kbps
Channel(s) : 6 channels
Channel positions : Front: L C R, Side: L R, LFE
Sampling rate : 48.0 KHz
Bit depth : 16 bits
Compression mode : Lossy
Stream size : 194 MiB (13%)
Alignment : Split accross interleaves
Interleave, duration : 42 ms (1.00 video frame)
Interleave, preload duration : 500 ms

Релиз:
Автор рипа: spidersoft
ПРИЯТНОГО ПРОСМОТРА!



   Похожие торренты   Торрент   Размер 
В этой теме нет новых непрочитанных сообщений. Живые Пейзажи: Осень в Новой Англии / Living Landscapes: Fall in New England (2007) BDRip от HQ-ViDEO

2 | 2

1.45 ГБ

В этой теме нет новых непрочитанных сообщений. Живые Пейзажи: Сад камней / Living Landscapes: Zen Garden (2007) BDRip от HELLYWOOD

6 | 4

892.55 МБ

В этой теме нет новых непрочитанных сообщений. Живые Пейзажи: Цветы И Сады / Living Landscapes: Flowers & Gardens (2009) BDRip от HQ-ViDEO

17 | 12

2.02 ГБ

В этой теме нет новых непрочитанных сообщений. Живые Пейзажи / Living Landscapes (2007) 17хBlu-Ray

0 | 965

302.31 ГБ

В этой теме нет новых непрочитанных сообщений. Живые Пейзажи: Дикая Африка / Living Landscapes: Wild Africa (2007) BDRip от HELLYWOOD

5 | 3

1.09 ГБ

В этой теме нет новых непрочитанных сообщений. Живые Пейзажи: Красивейшие уголки Земли / Living Landscapes: The World's Most Beautiful Places (2007) BDRip PROPER

362 | 5

1.13 ГБ

В этой теме нет новых непрочитанных сообщений. Живые Пейзажи: (Бали) / Living Landscapes: Bali (2006) BDRip AVC

218 | 47

1.43 ГБ




Вы не можете начинать темы
Вы не можете отвечать на сообщения
Вы не можете редактировать свои сообщения
Вы не можете удалять свои сообщения
Вы не можете добавлять вложения

Перейти:  
Для Мосгорсуда, Роскомнадзора и рекламодателей: mosgorsud-torrent[собачка]yandex.ru
 Вход
ppkBB3cker v.2 © 2008-2014 @ PPK
[ Time : 0.029s | 15 Queries | GZIP : Off ]

Торрент трекер RUTOR.IN, Не можете зайти на rutor.org? Какой новый адрес рутор? Какое зеркало рутор? Не работает rutor.org и зеркала? Тогда наш торрент специально для вас. Rutor.in неофициальное зеркало rutor. В случае если у Вас заблокирован rutor или вдруг Вы не можете на него зайти, то Вы без труда сможете скачать бесплатно и без рекламы последние новинки кино, игр, сериалов и прочего у нас, на Rutor.in. Не нужно использовать прокси, чтобы зайти на рутор, достаточно воспользоваться нашим ресурсом. Все новые фильмы, игры, сериалы, книги и музыка за 2013 и 2014 годы через торрент бесплатно. Скачивайте фильмы в хорошем качестве, игры для пк, xbox, playstation без регистрации. У нас вы найдете новые Зарубежные сериалы и Русские сериалы 2013, 2014, 2015 годов. Оставайтесь с нами, качайте любимые фильмы, игры, сериалы, книги и музыку.