img image001 image001 image001 image001 image001 image001 image001 image001 image001 image001 image001 image001 image001 image001 image001

Planets Sun Sun Sun
Статистика раздачи
Автор: Снежана | Размер: 2.84 ГБ | Добавлен: 25 июл 2013
Раздают: 2    Качают: 4
Скачать торрент
Скачать торрент
Описание торрента

СообщениеДобавлено: 25 июл 2013 

#77

Информация о фильме
Название: Последние львы
Оригинальное название: The Last Lions
Год выхода: 2011
Жанр: Документальный
Режиссер: Дерек Жубер
В ролях: Джереми Айронс

О фильме:
Львы мудрые и сильные животные по праву считаются царями природы. Так и было до недавнего времени… Человеческий эгоизм, неукротимая жажда развития поставила этот вид кошачьих на грань вымирания. Те особи, что остались в дикой природе, находятся под пристальным вниманием как защитников природы, так и алчных браконьеров. Ведь на черном рынке шкура льва стоит невероятно большие суммы. И находятся те люди, которые истребляют и без того вымирающий вид. Документальная лента «Последние львы» говорит сама за себя: этот фильм полностью посвящен жизни львов, проблемам, которые связаны с выживанием вида и возможными способами спасения величественных животных…



Страна: США, National Geographic
Продолжительность: 01:29:40
Дата релиза: 21.06.2013

Файл
Кодек: H.264
Качество: BDRip (AVC) (Blu-Ray Remux (1080p))
Видео: MPEG-4 AVC, 3450 Кбит/с, 1024x576
Звук:
Аудио 1: Русский (AC3, 2 ch, 192 Кбит/с) - Дублированный - И.Тарадайкин
Аудио 2: Русский (AC3, 6 ch, 448 Кбит/с) - Профессиональный одноголосый - А.Дасевич
Аудио 3: Английский (AC3, 6 ch, 448 Кбит/с)

Общее
Уникальный идентификатор : 201005127716750666857539924137917511327 (0x97382DF0134160AFB49BA2D3663F769F)
Полное имя : D:Poslednie.lyvi.2011.x264.BDRip.(AVC).ExKinoRay.mkv
Формат : Matroska
Размер файла : 2,84 Гбайт
Продолжительность : 1 ч. 29 м.
Общий поток : 4539 Кбит/сек
Название фильма : Poslednie.lyvi.2011.x264.BDRip.(AVC).ExKinoRay
Дата кодирования : UTC 2013-06-21 15:27:33
Программа кодирования : mkvmerge v4.0.0 ('The Stars were mine') сборка от Jun 6 2010 16:18:42
Библиотека кодирования : libebml v1.0.0 + libmatroska v1.0.0

Видео
Идентификатор : 1
Формат : AVC
Формат/Информация : Advanced Video Codec
Профиль формата : High@L4.1
Параметр CABAC формата : Да
Параметр ReFrames формата : 8 кадров
Идентификатор кодека : V_MPEG4/ISO/AVC
Продолжительность : 1 ч. 29 м.
Битрейт : 3450 Кбит/сек
Ширина : 1024 пикс.
Высота : 576 пикс.
Соотношение сторон : 16:9
Частота кадров : 23,976 кадр/сек
Цветовое пространство : YUV
Подвыборка цветности : 4:2:0
Битовая глубина : 8 бит
Тип развёртки : Прогрессивная
Бит/(Пиксели*Кадры) : 0.244
Размер потока : 2,11 Гбайт (74%)
Заголовок : Rip by Enigma-Vladislav71
Библиотека кодирования : x264 core 129 r2245 bc13772
Настройки программы : cabac=1 / ref=8 / deblock=1:-2:-2 / analyse=0x3:0x133 / me=umh / subme=11 / psy=1 / psy_rd=1.00:0.00 / mixed_ref=1 / me_range=48 / chroma_me=1 / trellis=2 / 8x8dct=1 / cqm=0 / deadzone=21,11 / fast_pskip=0 / chroma_qp_offset=-2 / threads=3 / lookahead_threads=1 / sliced_threads=0 / nr=0 / decimate=0 / interlaced=0 / bluray_compat=0 / constrained_intra=0 / bframes=8 / b_pyramid=2 / b_adapt=2 / b_bias=0 / direct=3 / weightb=1 / open_gop=0 / weightp=2 / keyint=240 / keyint_min=23 / scenecut=40 / intra_refresh=0 / rc_lookahead=40 / rc=2pass / mbtree=1 / bitrate=3450 / ratetol=1.0 / qcomp=0.60 / qpmin=10 / qpmax=51 / qpstep=4 / cplxblur=20.0 / qblur=0.5 / ip_ratio=1.40 / aq=2:1.00
Язык : English

Аудио #1
Идентификатор : 2
Формат : AC-3
Формат/Информация : Audio Coding 3
Расширение режима : CM (complete main)
Идентификатор кодека : A_AC3
Продолжительность : 1 ч. 29 м.
Вид битрейта : Постоянный
Битрейт : 192 Кбит/сек
Каналы : 2 канала
Расположение каналов : Front: L R
Частота : 48,0 КГц
Битовая глубина : 16 бит
Метод сжатия : С потерями
Размер потока : 123 Мбайт (4%)
Заголовок : Дублированный - И.Тарадайкин
Язык : Russian

Аудио #2
Идентификатор : 3
Формат : AC-3
Формат/Информация : Audio Coding 3
Расширение режима : CM (complete main)
Идентификатор кодека : A_AC3
Продолжительность : 1 ч. 29 м.
Вид битрейта : Постоянный
Битрейт : 448 Кбит/сек
Каналы : 6 каналов
Расположение каналов : Front: L C R, Side: L R, LFE
Частота : 48,0 КГц
Битовая глубина : 16 бит
Метод сжатия : С потерями
Размер потока : 287 Мбайт (10%)
Заголовок : Профессиональный одноголосый - А.Дасевич
Язык : Russian

Аудио #3
Идентификатор : 4
Формат : AC-3
Формат/Информация : Audio Coding 3
Расширение режима : CM (complete main)
Идентификатор кодека : A_AC3
Продолжительность : 1 ч. 29 м.
Вид битрейта : Постоянный
Битрейт : 448 Кбит/сек
Каналы : 6 каналов
Расположение каналов : Front: L C R, Side: L R, LFE
Частота : 48,0 КГц
Битовая глубина : 16 бит
Метод сжатия : С потерями
Размер потока : 287 Мбайт (10%)
Заголовок : Английский
Язык : English


Семпл


Релиз от:

Авторы релиза:



   Похожие торренты   Торрент   Размер 
В этой теме нет новых непрочитанных сообщений. Последние львы / The Last Lions (2011) BDRip от HELLYWOOD

3 | 3

1.45 ГБ

В этой теме нет новых непрочитанных сообщений. Последние львы / The Last Lions (2011) BDRip 720p от Generalfilm

0 | 2

2.19 ГБ

В этой теме нет новых непрочитанных сообщений. Последние львы / The Last Lions (2011) BDRip 720p от denis 100 | D, A

8 | 2

4.37 ГБ

В этой теме нет новых непрочитанных сообщений. Последние львы / The Last Lions (2011) BDRip 1080p - R.G. SubVoice & Uniongang

1 | 2

8.89 ГБ

В этой теме нет новых непрочитанных сообщений. Последние львы / The Last Lions (2011) BDRip 720p от Leonardo and Scarabey | D | И.Тарадайкин

9 | 3

3.75 ГБ

В этой теме нет новых непрочитанных сообщений. Последние львы / The Last Lions (2011) DVDRip

9 | 4

700.88 МБ

В этой теме нет новых непрочитанных сообщений. Последние львы / The Last Lions (2011) HDRip - R.G. SubVoice & Uniongang

7 | 2

1.37 ГБ




Вы не можете начинать темы
Вы не можете отвечать на сообщения
Вы не можете редактировать свои сообщения
Вы не можете удалять свои сообщения
Вы не можете добавлять вложения

Перейти:  
Для Мосгорсуда, Роскомнадзора и рекламодателей: mosgorsud-torrent[собачка]yandex.ru
 Вход
ppkBB3cker v.2 © 2008-2014 @ PPK
[ Time : 0.022s | 16 Queries | GZIP : On ]

Торрент трекер RUTOR.IN, Не можете зайти на rutor.org? Какой новый адрес рутор? Какое зеркало рутор? Не работает rutor.org и зеркала? Тогда наш торрент специально для вас. Rutor.in неофициальное зеркало rutor. В случае если у Вас заблокирован rutor или вдруг Вы не можете на него зайти, то Вы без труда сможете скачать бесплатно и без рекламы последние новинки кино, игр, сериалов и прочего у нас, на Rutor.in. Не нужно использовать прокси, чтобы зайти на рутор, достаточно воспользоваться нашим ресурсом. Все новые фильмы, игры, сериалы, книги и музыка за 2013 и 2014 годы через торрент бесплатно. Скачивайте фильмы в хорошем качестве, игры для пк, xbox, playstation без регистрации. У нас вы найдете новые Зарубежные сериалы и Русские сериалы 2013, 2014, 2015 годов. Оставайтесь с нами, качайте любимые фильмы, игры, сериалы, книги и музыку.