img image001 image001 image001 image001 image001 image001 image001 image001 image001 image001 image001 image001 image001 image001 image001

Planets Sun Sun Sun
Статистика раздачи
Автор: Снежана | Размер: 1.27 ГБ | Добавлен: 25 июл 2013
Раздают: 8    Качают: 5
Скачать торрент
Скачать торрент
Описание торрента

СообщениеДобавлено: 25 июл 2013 

#77

Название: Секреты меча викингов
Оригинальное название: Secrets of the Viking Sword
Год выхода: 2012
Жанр: Документальный, научно-познавательный, исследования, история, оружие, технология
Режиссер: Питер Йост / Peter Yost

Описание: Викинги были самыми суровыми воинами Средневековья. Но самыми жестокими были те, кто владел особым оружием - легким, острым мечом, который не ломался, - его называют Ульфберт, по надписи на его клинке. Но кто такой Ульфберт, откуда взялся этот меч и как он был откован спустя 1000 лет?



Страна: США
Студия: Nova ,National Geographic Television, Pangloss Films
Продолжительность: 00:54:12
Перевод: Профессиональный (одноголосый,закадровый) - Алексеев Михаил
Субтитры: Русские



Качество: HDTVRip 720p
Формат: MKV
Видео: MPEG4, 1280x720, 3177 Кбит/сек
Аудио: MP3, 2 ch, 192 Кбит/сек

Общее
Уникальный идентификатор : 239983671891103082681769253830261588043 (0xB48B2C8A572775159979117D061DC04B)
Полное имя : F:ФильмыSecrets.of.the.Viking.Sword.2012.HDTVRip.720p.RUS.mkv
Формат : Matroska
Версия формата : Version 2
Размер файла : 1,27 Гбайт
Продолжительность : 52 м.
Общий поток : 3438 Кбит/сек
Дата кодирования : UTC 2013-06-27 20:10:48
Программа кодирования : mkvmerge v5.4.0 ('Piper') built on Mar 10 2012 13:34:39
Библиотека кодирования : libebml v1.2.3 + libmatroska v1.3.0

Видео
Идентификатор : 1
Формат : AVC
Формат/Информация : Advanced Video Codec
Профиль формата : High@L4.1
Параметр CABAC формата : Да
Параметр ReFrames формата : 5 кадров
Идентификатор кодека : V_MPEG4/ISO/AVC
Продолжительность : 52 м.
Битрейт : 3178 Кбит/сек
Ширина : 1280 пикселей
Высота : 720 пикселей
Соотношение сторон : 16:9
Режим частоты кадров : Постоянный
Частота кадров : 29,970 кадров/сек
Цветовое пространство : YUV
Субдискретизация насыщенности : 4:2:0
Битовая глубина : 8 бит
Тип развёртки : Прогрессивная
Бит/(Пиксели*Кадры) : 0.115
Размер потока : 1,17 Гбайт (92%)
Библиотека кодирования : x264 core 125 r2208 d9d2288
Настройки программы : cabac=1 / ref=5 / deblock=1:0:0 / analyse=0x3:0x113 / me=umh / subme=8 / psy=1 / psy_rd=1.00:0.00 / mixed_ref=1 / me_range=16 / chroma_me=1 / trellis=1 / 8x8dct=1 / cqm=0 / deadzone=21,11 / fast_pskip=1 / chroma_qp_offset=-2 / threads=6 / lookahead_threads=1 / sliced_threads=0 / nr=0 / decimate=1 / interlaced=0 / bluray_compat=0 / constrained_intra=0 / bframes=3 / b_pyramid=2 / b_adapt=2 / b_bias=0 / direct=3 / weightb=1 / open_gop=0 / weightp=2 / keyint=250 / keyint_min=25 / scenecut=40 / intra_refresh=0 / rc_lookahead=50 / rc=crf / mbtree=1 / crf=20.0 / qcomp=0.60 / qpmin=0 / qpmax=69 / qpstep=4 / ip_ratio=1.40 / aq=1:1.00
Язык : English
Default : Да
Forced : Нет

Аудио
Идентификатор : 2
Формат : MPEG Audio
Версия формата : Version 1
Профиль формата : Layer 3
Идентификатор кодека : A_MPEG/L3
Идентификатор кодека/Подсказка : MP3
Продолжительность : 52 м.
Вид битрейта : Постоянный
Битрейт : 192 Кбит/сек
Каналы : 2 канала
Частота : 48,0 КГц
Метод сжатия : С потерями
Размер потока : 72,7 Мбайт (6%)
Заголовок : Закадровый (Алексеев М.)
Язык : Russian
Default : Да
Forced : Нет

Текст
Идентификатор : 3
Формат : UTF-8
Идентификатор кодека : S_TEXT/UTF8
Идентификатор кодека/Информация : UTF-8 Plain Text
Язык : Russian
Default : Нет
Forced : Нет




   Похожие торренты   Торрент   Размер 
В этой теме нет новых непрочитанных сообщений. NOVA: Секреты меча викингов / NOVA: Secrets of the Viking Sword (2012) HDTVRip

7 | 4

757.74 МБ

В этой теме нет новых непрочитанных сообщений. Секреты меча викингов / Secrets of the Viking Sword (2012) HDTVRip-AVC от F-Torrents

25 | 3

773.18 МБ

В этой теме нет новых непрочитанных сообщений. NOVA: Пропавшая гитлеровская подлодка / NOVA: Hitlers Lost Sub (2000) SATRip

3 | 8

1.37 ГБ

В этой теме нет новых непрочитанных сообщений. PBS. NOVA: Становление человека / PBS. NOVA: Becoming human (2009) BDRip от -=HD-NET=-

45 | 19

2.03 ГБ

В этой теме нет новых непрочитанных сообщений. PBS. NOVA: Невероятное путешествие бабочек / PBS. NOVA: The Incredible Jour....

1 | 3

851.25 МБ

В этой теме нет новых непрочитанных сообщений. На Границе с Космосом / Nova: At the Edge of Space (2013) HDTVRip 720p

292 | 20

1.15 ГБ

В этой теме нет новых непрочитанных сообщений. Мастера меча онлайн / Sword Art Online TV [01-25 из 25] (2012) HDTVRip 720p от TEAM RENEGADE | L

498 | 59

9.62 ГБ




Вы не можете начинать темы
Вы не можете отвечать на сообщения
Вы не можете редактировать свои сообщения
Вы не можете удалять свои сообщения
Вы не можете добавлять вложения

Перейти:  
Для Мосгорсуда, Роскомнадзора и рекламодателей: mosgorsud-torrent[собачка]yandex.ru
 Вход
ppkBB3cker v.2 © 2008-2014 @ PPK
[ Time : 0.022s | 14 Queries | GZIP : Off ]

Торрент трекер RUTOR.IN, Не можете зайти на rutor.org? Какой новый адрес рутор? Какое зеркало рутор? Не работает rutor.org и зеркала? Тогда наш торрент специально для вас. Rutor.in неофициальное зеркало rutor. В случае если у Вас заблокирован rutor или вдруг Вы не можете на него зайти, то Вы без труда сможете скачать бесплатно и без рекламы последние новинки кино, игр, сериалов и прочего у нас, на Rutor.in. Не нужно использовать прокси, чтобы зайти на рутор, достаточно воспользоваться нашим ресурсом. Все новые фильмы, игры, сериалы, книги и музыка за 2013 и 2014 годы через торрент бесплатно. Скачивайте фильмы в хорошем качестве, игры для пк, xbox, playstation без регистрации. У нас вы найдете новые Зарубежные сериалы и Русские сериалы 2013, 2014, 2015 годов. Оставайтесь с нами, качайте любимые фильмы, игры, сериалы, книги и музыку.