img image001 image001 image001 image001 image001 image001 image001 image001 image001 image001 image001 image001 image001 image001 image001

Planets Sun Sun Sun
Статистика раздачи
Автор: Снежана | Размер: 700.71 МБ | Добавлен: 25 июл 2013
Раздают: 12    Качают: 4
Скачать торрент
Скачать торрент
Описание торрента

СообщениеДобавлено: 25 июл 2013 

Тайны дикой природы Индии: В царстве слонов
Secrets of Wild India: Elephant Kingdom



#77

Год выпуска: 2012
Страна: США
Жанр: документальный
Продолжительность: 00:44:59
Перевод: Профессиональный (дублированный) | Игорь Тарадайкин / АРК·ТВ
Русские субтитры: нет

Режиссер: Дункан Чард / Duncan Chard

Описание: Посмотрите на мир гигантских травоядных, обитающих в предгорьях Гималаев в Индии, глазами новорожденного слонёнка.



Сэмпл: http://multi-up.com/881149

Автор рипа: Leo.pard
Исходник: HDTV 1080i от LeXa 84

Kачество: HDTVRip
Формат: AVI
Видео: XviD, 720x400 (16:9), 1976 Kbps, 25 fps
Аудио: MP2, 192 Kbps, 48 KHz, 2 channels
General
Complete name : E:Tajny.dikoj.prirody.Indii.V.carstve.slonov.2012.HDTVRip.avi
Format : AVI
Format/Info : Audio Video Interleave
File size : 701 MiB
Duration : 44mn 59s
Overall bit rate : 2 178 Kbps
Writing application : VirtualDubMod 1.5.10.3 | www.virtualdub-fr.org || (build 2550/release)
Writing library : VirtualDubMod build 2550/release

Video
ID : 0
Format : MPEG-4 Visual
Format profile : Advanced Simple@L5
Format settings, BVOP : 1
Format settings, QPel : No
Format settings, GMC : No warppoints
Format settings, Matrix : Custom
Codec ID : XVID
Codec ID/Hint : XviD
Duration : 44mn 59s
Bit rate : 1 976 Kbps
Width : 720 pixels
Height : 400 pixels
Display aspect ratio : 16:9
Frame rate : 25.000 fps
Color space : YUV
Chroma subsampling : 4:2:0
Bit depth : 8 bits
Scan type : Progressive
Compression mode : Lossy
Bits/(Pixel*Frame) : 0.274
Stream size : 636 MiB (91%)
Writing library : XviD 73

Audio
ID : 1
Format : MPEG Audio
Format version : Version 1
Format profile : Layer 2
Codec ID : 50
Duration : 44mn 59s
Bit rate mode : Constant
Bit rate : 192 Kbps
Channel(s) : 2 channels
Sampling rate : 48.0 KHz
Compression mode : Lossy
Stream size : 61.8 MiB (9%)
Alignment : Aligned on interleaves
Interleave, duration : 40 ms (1.00 video frame)
Interleave, preload duration : 504 ms





Спасибо, LeXa 84, за предоставленный материал.



   Похожие торренты   Торрент   Размер 
В этой теме нет новых непрочитанных сообщений. Тайны дикой природы Индии: В царстве слонов / Королевство слонов / Secrets of Wild India: Elephant Kingdom (2012) HDTVRip-AVC от Leo.pard

6 | 2

699.51 МБ

В этой теме нет новых непрочитанных сообщений. Тайны дикой природы Индии: Хищники джунглей / Тигр Джунглей / Secrets of Wild India: Tiger Jungles (2012) HDTVRip-AVC от Leo.pard | D

41 | 3

699.51 МБ

В этой теме нет новых непрочитанных сообщений. Тайны дикой природы Индии: Хищники джунглей / Тигр Джунглей / Secrets of Wild India: Tiger Jungles (2012) HDTVRip от Leo.pard | D

46 | 6

700.42 МБ

В этой теме нет новых непрочитанных сообщений. Тайны дикой природы Индии: Львы пустыни / Secrets of Wild India: Desert Lions (2012) HDTVRip | D

16 | 8

699.7 МБ

В этой теме нет новых непрочитанных сообщений. Тайны дикой природы Индии: Львы пустыни / Secrets of Wild India: Desert Lions (2012) HDTVRip-AVC | D

5 | 3

699.7 МБ

В этой теме нет новых непрочитанных сообщений. Тайны дикой природы Индии: Хищники джунглей / Secrets of Wild India: Tiger Jungles (2011) HDTVRip 720р от RG MixTorrent

14 | 3

1.01 ГБ

В этой теме нет новых непрочитанных сообщений. Тайны дикой природы Индии: Львы пустыни / Secrets of Wild India: Desert Lions (2011) HDTVRip 720р от RG MixTorrent

6 | 7

936.08 МБ




Вы не можете начинать темы
Вы не можете отвечать на сообщения
Вы не можете редактировать свои сообщения
Вы не можете удалять свои сообщения
Вы не можете добавлять вложения

Перейти:  
Для Мосгорсуда, Роскомнадзора и рекламодателей: mosgorsud-torrent[собачка]yandex.ru
 Вход
ppkBB3cker v.2 © 2008-2014 @ PPK
[ Time : 0.020s | 14 Queries | GZIP : On ]

Торрент трекер RUTOR.IN, Не можете зайти на rutor.org? Какой новый адрес рутор? Какое зеркало рутор? Не работает rutor.org и зеркала? Тогда наш торрент специально для вас. Rutor.in неофициальное зеркало rutor. В случае если у Вас заблокирован rutor или вдруг Вы не можете на него зайти, то Вы без труда сможете скачать бесплатно и без рекламы последние новинки кино, игр, сериалов и прочего у нас, на Rutor.in. Не нужно использовать прокси, чтобы зайти на рутор, достаточно воспользоваться нашим ресурсом. Все новые фильмы, игры, сериалы, книги и музыка за 2013 и 2014 годы через торрент бесплатно. Скачивайте фильмы в хорошем качестве, игры для пк, xbox, playstation без регистрации. У нас вы найдете новые Зарубежные сериалы и Русские сериалы 2013, 2014, 2015 годов. Оставайтесь с нами, качайте любимые фильмы, игры, сериалы, книги и музыку.