img image001 image001 image001 image001 image001 image001 image001 image001 image001 image001 image001 image001 image001 image001 image001

Planets Sun Sun Sun
Статистика раздачи
Автор: Снежана | Размер: 814.58 МБ | Добавлен: 25 июл 2013
Раздают: 39    Качают: 6
Скачать торрент
Скачать торрент
Описание торрента

СообщениеДобавлено: 25 июл 2013 


Инфомация о фильме
Название: BBC: Поле битвы. Львы
Оригинальное название: BBC: Lion Battlefield
Год выхода: 2002
Жанр: Документальный, научно - популярный
О фильме
Африканские саванны — не только место обитания различных видов животных, но и арена, на которой каждую минуту происходят стычки между противоборствующими сторонами, между хищниками и их жертвами.
Основными зачинщиками всех конфликтов являются львы, могучие воины саванн. Лишь на первый взгляд кажется, что их действия носят беспорядочный характер, однако, благодаря этой программе вы увидите, что каждая их вылазка тщательно продумана и организована.


Страна: Великобритания
Студия: British Broadcasting Corporation (BBC)
Продолжительность: 00:59:10
Перевод: Профессиональный(одноголосый,закадровый)
Файл
Формат: MKV
Качество: DVDRip-AVC
Видео: MPEG4 AVC 768 x 576, 25.000 fps, 1700 - 1925 Кбит/с
Звук: AC-3, 2 ch, 224 Кбит/с
Субтитры: Нет

General
Unique ID : 211531038429751089416220987389040888177 (0x9F236567541B8B229D28BC7606BF8971)
Complete name : D:DownloadsBBC.Lion.Battlefield.2002.x264.DVDRip.(AVC).by.Тorrent-Хzona.mkv
Format : Matroska
Format version : Version 2
File size : 815 MiB
Duration : 59mn 10s
Overall bit rate : 1 925 Kbps
Encoded date : UTC 2013-07-06 05:21:16
Writing application : mkvmerge v6.1.0 ('Old Devil') built on Mar 4 2013 09:10:42
Writing library : libebml v1.3.0 + libmatroska v1.4.0
Video
ID : 1
Format : AVC
Format/Info : Advanced Video Codec
Format profile : High@L4.1
Format settings, CABAC : Yes
Format settings, ReFrames : 5 frames
Codec ID : V_MPEG4/ISO/AVC
Duration : 59mn 10s
Bit rate : 1 700 Kbps
Width : 768 pixels
Height : 576 pixels
Display aspect ratio : 4:3
Frame rate mode : Constant
Frame rate : 25.000 fps
Color space : YUV
Chroma subsampling : 4:2:0
Bit depth : 8 bits
Scan type : Progressive
Bits/(Pixel*Frame) : 0.154
Stream size : 704 MiB (86%)
Writing library : x264 core 130 r2273 b3065e6
Encoding settings : cabac=1 / ref=5 / deblock=1:-2:-2 / analyse=0x3:0x111 / me=umh / subme=9 / psy=1 / psy_rd=0.00:0.10 / mixed_ref=1 / me_range=32 / chroma_me=1 / trellis=2 / 8x8dct=1 / cqm=0 / deadzone=21,11 / fast_pskip=0 / chroma_qp_offset=-1 / threads=6 / lookahead_threads=1 / sliced_threads=0 / nr=0 / decimate=1 / interlaced=0 / bluray_compat=0 / constrained_intra=0 / bframes=5 / b_pyramid=2 / b_adapt=0 / b_bias=0 / direct=1 / weightb=1 / open_gop=0 / weightp=2 / keyint=250 / keyint_min=25 / scenecut=40 / intra_refresh=0 / rc_lookahead=50 / rc=2pass / mbtree=1 / bitrate=1700 / ratetol=1.0 / qcomp=0.60 / qpmin=0 / qpmax=69 / qpstep=4 / cplxblur=20.0 / qblur=0.5 / ip_ratio=1.40 / aq=1:1.00
Default : Yes
Forced : No
Audio
ID : 2
Format : AC-3
Format/Info : Audio Coding 3
Mode extension : CM (complete main)
Format settings, Endianness : Big
Codec ID : A_AC3
Duration : 59mn 10s
Bit rate mode : Constant
Bit rate : 224 Kbps
Channel(s) : 2 channels
Channel positions : Front: L R
Sampling rate : 48.0 KHz
Bit depth : 16 bits
Compression mode : Lossy
Stream size : 94.8 MiB (12%)
Default : Yes
Forced : No



Релиз от: &



   Похожие торренты   Торрент   Размер 
В этой теме нет новых непрочитанных сообщений. BBC: Акулы. Поле битвы / Shark Battlefield (2002) DVDRip-AVC от Тorrent-Хzona

8 | 3

775.5 МБ

В этой теме нет новых непрочитанных сообщений. BBC: Поле битвы. Волки / Wolf Battlefield (2002) DVDRip-AVC от Тorrent-Хzona

42 | 3

665.55 МБ

В этой теме нет новых непрочитанных сообщений. Поле битвы - Земля / Battlefield Earth: A Saga of the Year 3000 (2000) DVDRip-AVC | D, P

18 | 3

2.95 ГБ

В этой теме нет новых непрочитанных сообщений. Поле битвы: Земля / Battlefield Earth: A Saga of the Year 3000 (2000) DVDRip

19 | 5

1.45 ГБ

В этой теме нет новых непрочитанных сообщений. Поле битвы - Земля / Battlefield Earth: A Saga of the Year 3000 (2000) DVDRip-AVC | D

50 | 6

1.44 ГБ

В этой теме нет новых непрочитанных сообщений. Поле битвы: Земля / Battlefield Earth / Battlefield Earth: A Saga of the Year 3000 (2000) BD-Remux | Расширенная Версия

75 | 14

19.23 ГБ

В этой теме нет новых непрочитанных сообщений. Поле битвы: Земля / Battlefield Earth / Battlefield Earth: A Saga of the Year 3000 (2000) BDRip от Rulya74 / Расширенная Версия

29 | 5

2.19 ГБ




Вы не можете начинать темы
Вы не можете отвечать на сообщения
Вы не можете редактировать свои сообщения
Вы не можете удалять свои сообщения
Вы не можете добавлять вложения

Перейти:  
Для Мосгорсуда, Роскомнадзора и рекламодателей: mosgorsud-torrent[собачка]yandex.ru
 Вход
ppkBB3cker v.2 © 2008-2014 @ PPK
[ Time : 0.035s | 14 Queries | GZIP : Off ]

Торрент трекер RUTOR.IN, Не можете зайти на rutor.org? Какой новый адрес рутор? Какое зеркало рутор? Не работает rutor.org и зеркала? Тогда наш торрент специально для вас. Rutor.in неофициальное зеркало rutor. В случае если у Вас заблокирован rutor или вдруг Вы не можете на него зайти, то Вы без труда сможете скачать бесплатно и без рекламы последние новинки кино, игр, сериалов и прочего у нас, на Rutor.in. Не нужно использовать прокси, чтобы зайти на рутор, достаточно воспользоваться нашим ресурсом. Все новые фильмы, игры, сериалы, книги и музыка за 2013 и 2014 годы через торрент бесплатно. Скачивайте фильмы в хорошем качестве, игры для пк, xbox, playstation без регистрации. У нас вы найдете новые Зарубежные сериалы и Русские сериалы 2013, 2014, 2015 годов. Оставайтесь с нами, качайте любимые фильмы, игры, сериалы, книги и музыку.