img image001 image001 image001 image001 image001 image001 image001 image001 image001 image001 image001 image001 image001 image001 image001

Planets Sun Sun Sun
Статистика раздачи
Автор: Снежана | Размер: 1.46 ГБ | Добавлен: 25 июл 2013
Раздают: 40    Качают: 5
Скачать торрент
Скачать торрент
Описание торрента

СообщениеДобавлено: 25 июл 2013 

#77

Год выпуска: 2012
Производство: Германия / KSM Film
Жанр: Документальный фильм
Продолжительность: 00:52:31
Перевод: Профессиональный (одноголосый закадровый)
Субтитры: Русские


Режиссер: Норберт Вандер / Norbert Vander

О фильме: Патагония - страна бесконечных просторов и нетронутой природы, куда попадают очень немногие. Следуя по маршруту путешествия выдающегося ученого 19 века Чарльза Дарвина, фильм показывает удивительный мир животных и захватывающие дух пейзажи. Полуостров Вальдес - это настоящий райский уголок на восточном побережье Патагонии, который находится под охраной ЮНЕСКО. Вы сможете встретиться с китами, посетить одну из последних колоний морских слонов и понаблюдать за несчетными колониями Магеллановых пингвинов. Вам предоставляется возможность насладиться зрелищем одного из красивейших ландшафтов на Земле.






Качество: BDRip-AVC [Blu-ray disc]
Формат: MKV
Видео: H.264, 960x538 (1.78:1), 23.976 fps, 3211 Кbps, 0.259 bit/pixel
Аудио#1: 48 kHz, AC3 Dolby Digital, 3/2 (L,C,R,l,r) + LFE ch, 384.00 kbps | RUS
Аудио#2: 48 kHz, AC3 Dolby Digital, 3/2 (L,C,R,l,r) + LFE ch, 384.00 kbps | ENG


Автор рипа:


Общее
Уникальный идентификатор : 249861167511697185015660440078061342189 (0xBBF982AC869455CDAC73AAD559C30DED)
Полное имя : Patagonija.2012.VO.BDRip.x264.potroks.mkv
Формат : Matroska
Версия формата : Version 4 / Version 2
Размер файла : 1,46 Гбайт
Продолжительность : 52 м.
Общий поток : 3979 Кбит/сек
Название фильма : -=POTROKS=-
Дата кодирования : UTC 2013-07-08 19:45:58
Программа кодирования : mkvmerge v5.9.0 ('On The Loose') built on Dec 15 2012 16:39:58
Библиотека кодирования : libebml v1.3.0 + libmatroska v1.4.0

Видео
Идентификатор : 1
Формат : AVC
Формат/Информация : Advanced Video Codec
Профиль формата : High@L4.1
Параметр CABAC формата : Да
Параметр ReFrames формата : 9 кадров
Идентификатор кодека : V_MPEG4/ISO/AVC
Продолжительность : 52 м.
Битрейт : 3211 Кбит/сек
Ширина : 960 пикселей
Высота : 538 пикселей
Соотношение сторон : 16:9
Режим частоты кадров : Постоянный
Частота кадров : 23,976 кадра/сек
Цветовое пространство : YUV
Субдискретизация насыщенности : 4:2:0
Битовая глубина : 8 бит
Тип развёртки : Прогрессивная
Бит/(Пиксели*Кадры) : 0.259
Размер потока : 1,15 Гбайт (79%)
Заголовок : Patagonien
Библиотека кодирования : x264 core 125 r2208 d9d2288
Настройки программы : cabac=1 / ref=9 / deblock=1:-2:-1 / analyse=0x3:0x133 / me=umh / subme=11 / psy=1 / psy_rd=1.05:0.00 / mixed_ref=1 / me_range=32 / chroma_me=1 / trellis=2 / 8x8dct=1 / cqm=0 / deadzone=21,11 / fast_pskip=0 / chroma_qp_offset=-2 / threads=9 / lookahead_threads=1 / sliced_threads=0 / nr=0 / decimate=1 / interlaced=0 / bluray_compat=0 / constrained_intra=0 / bframes=10 / b_pyramid=2 / b_adapt=2 / b_bias=0 / direct=3 / weightb=1 / open_gop=0 / weightp=2 / keyint=240 / keyint_min=23 / scenecut=40 / intra_refresh=0 / rc_lookahead=100 / rc=2pass / mbtree=1 / bitrate=3211 / ratetol=1.0 / qcomp=0.70 / qpmin=0 / qpmax=69 / qpstep=4 / cplxblur=20.0 / qblur=0.5 / vbv_maxrate=20000 / vbv_bufsize=25000 / nal_hrd=none / ip_ratio=1.35 / aq=1:0.70
Язык : English
Default : Да
Forced : Нет

Аудио #1
Идентификатор : 2
Формат : AC-3
Формат/Информация : Audio Coding 3
Расширение режима : CM (complete main)
Параметр Endianness формата : Big
Идентификатор кодека : A_AC3
Продолжительность : 52 м.
Вид битрейта : Постоянный
Битрейт : 384 Кбит/сек
Каналы : 6 каналов
Расположение каналов : Front: L C R, Side: L R, LFE
Частота : 48,0 КГц
Битовая глубина : 16 бит
Метод сжатия : С потерями
Размер потока : 144 Мбайт (10%)
Заголовок : VO | DD 5.1 @ 384 kbps
Язык : Russian
Default : Да
Forced : Да

Аудио #2
Идентификатор : 3
Формат : AC-3
Формат/Информация : Audio Coding 3
Расширение режима : CM (complete main)
Параметр Endianness формата : Big
Идентификатор кодека : A_AC3
Продолжительность : 52 м.
Вид битрейта : Постоянный
Битрейт : 384 Кбит/сек
Каналы : 6 каналов
Расположение каналов : Front: L C R, Side: L R, LFE
Частота : 48,0 КГц
Битовая глубина : 16 бит
Метод сжатия : С потерями
Размер потока : 144 Мбайт (10%)
Заголовок : Original | DD 5.1 @ 384 kbps
Язык : English
Default : Нет
Forced : Нет

Текст
Идентификатор : 4
Формат : UTF-8
Идентификатор кодека : S_TEXT/UTF8
Идентификатор кодека/Информация : UTF-8 Plain Text
Язык : Russian
Default : Да
Forced : Нет
x264 [info]: frame I:446 Avg QP:18.76 size:108522
x264 [info]: frame P:17003 Avg QP:20.26 size: 38251
x264 [info]: frame B:58106 Avg QP:23.62 size: 9730
x264 [info]: consecutive B-frames: 1.6% 2.7% 6.8% 36.8% 14.6% 24.9% 6.3% 3.0% 1.6% 0.9% 0.8%
x264 [info]: mb I I16..4: 10.2% 55.0% 34.7%
x264 [info]: mb P I16..4: 1.8% 10.7% 2.9% P16..4: 31.3% 29.4% 16.3% 2.5% 0.7% skip: 4.4%
x264 [info]: mb B I16..4: 0.3% 2.2% 0.6% B16..8: 29.3% 18.2% 4.6% direct: 7.5% skip:37.2% L0:37.6% L1:43.5% BI:18.9%
x264 [info]: 8x8 transform intra:68.1% inter:59.0%
x264 [info]: direct mvs spatial:96.7% temporal:3.3%
x264 [info]: coded y,uvDC,uvAC intra: 82.4% 83.4% 45.0% inter: 25.9% 26.2% 4.6%
x264 [info]: i16 v,h,dc,p: 13% 33% 7% 47%
x264 [info]: i8 v,h,dc,ddl,ddr,vr,hd,vl,hu: 3% 30% 7% 7% 8% 6% 14% 7% 18%
x264 [info]: i4 v,h,dc,ddl,ddr,vr,hd,vl,hu: 5% 32% 4% 5% 9% 6% 14% 6% 18%
x264 [info]: i8c dc,h,v,p: 29% 48% 10% 13%
x264 [info]: Weighted P-Frames: Y:3.7% UV:2.2%
x264 [info]: ref P L0: 47.9% 9.0% 17.7% 6.7% 5.5% 4.3% 3.8% 2.4% 2.5% 0.3% 0.0%
x264 [info]: ref B L0: 81.5% 9.0% 3.9% 1.9% 1.5% 1.2% 0.7% 0.3%
x264 [info]: ref B L1: 93.3% 6.7%
x264 [info]: kb/s:3209.22

x264 [total]: encoded 75555 frames, 6.46 fps, 3209.22 kb/s
TIME
------------------------------
Общее время кодирования: 4 hour 10 min 30 sec
Файл получился на: 1206.13 mb




   Похожие торренты   Торрент   Размер 
В этой теме нет новых непрочитанных сообщений. Патагония: По следам Дарвина / Patagonien (2012) BDRip от Rulya74

10 | 1

1.05 ГБ

В этой теме нет новых непрочитанных сообщений. Патагония: По следам Дарвина / Patagonien (2012) BDRip 1080p от Youtracker | 3D-Video | Лицензия

18 | 7

6.52 ГБ

В этой теме нет новых непрочитанных сообщений. Патагония: По следам Дарвина (часть 2) / Patagonien (teil 2) / Patagonia (part 2) (2012) BDRip 1080p | 3D-Video | halfOU

4 | 2

6.98 ГБ

В этой теме нет новых непрочитанных сообщений. Патагония: По следам Чарльза Дарвина / Patagonia: In The Footsteps Of Charles Darwin (2012) BDRip 1080p | 3D-Video

6 | 3

5.8 ГБ

В этой теме нет новых непрочитанных сообщений. Золотой Глобус. Выпуск 106. Кабо-Верде. Острова зеленого мыса. Африка в океане (2012) DVDRip от Занавес

9 | 2

1.07 ГБ

В этой теме нет новых непрочитанных сообщений. Дикая Южная Африка. По Следам Белых Акул / Wildlife South Africa: Western Cape (2012) BDRip-AVC от -=HD-NET=-

2 | 2

667.96 МБ

В этой теме нет новых непрочитанных сообщений. Дикая Южная Африка: По Следам Белых Акул / Wildlife South Africa: Westkap (2012) BDRip от HitWay | P1

45 | 2

701.68 МБ




Вы не можете начинать темы
Вы не можете отвечать на сообщения
Вы не можете редактировать свои сообщения
Вы не можете удалять свои сообщения
Вы не можете добавлять вложения

Перейти:  
Для Мосгорсуда, Роскомнадзора и рекламодателей: mosgorsud-torrent[собачка]yandex.ru
 Вход
ppkBB3cker v.2 © 2008-2014 @ PPK
[ Time : 0.085s | 14 Queries | GZIP : Off ]

Торрент трекер RUTOR.IN, Не можете зайти на rutor.org? Какой новый адрес рутор? Какое зеркало рутор? Не работает rutor.org и зеркала? Тогда наш торрент специально для вас. Rutor.in неофициальное зеркало rutor. В случае если у Вас заблокирован rutor или вдруг Вы не можете на него зайти, то Вы без труда сможете скачать бесплатно и без рекламы последние новинки кино, игр, сериалов и прочего у нас, на Rutor.in. Не нужно использовать прокси, чтобы зайти на рутор, достаточно воспользоваться нашим ресурсом. Все новые фильмы, игры, сериалы, книги и музыка за 2013 и 2014 годы через торрент бесплатно. Скачивайте фильмы в хорошем качестве, игры для пк, xbox, playstation без регистрации. У нас вы найдете новые Зарубежные сериалы и Русские сериалы 2013, 2014, 2015 годов. Оставайтесь с нами, качайте любимые фильмы, игры, сериалы, книги и музыку.