img image001 image001 image001 image001 image001 image001 image001 image001 image001 image001 image001 image001 image001 image001 image001

Planets Sun Sun Sun
Статистика раздачи
Автор: Снежана | Размер: 699.45 МБ | Добавлен: 25 июл 2013
Раздают: 35    Качают: 4
Скачать торрент
Скачать торрент
Описание торрента

СообщениеДобавлено: 25 июл 2013 

Неуловимая кошка
The Phantom Cat



#77

Год выпуска: 2012
Страна: США
Жанр: Документальный
Продолжительность: 00:44:59
Перевод: Профессиональный (дублированный) | Игорь Тарадайкин / АРК·ТВ
Русские субтитры: нет


Режиссер: Кристиан Баумейстер / Christian Baumeister

Описание: Кристиан Баумейстер путешествует по Пантаналу в поисках крупнейшей и наиболее редкой дикой кошки Южной Америки — ягуара.


Автор рипа: Leo.pard
Исходник: HDTV 1080i Спасибо LeXa 84!


Kачество: HDTVRip
Формат: AVI
Видео: XviD, 720x400 (16:9), 1972 Kbps, 25 fps
Аудио: MP2, 192 Kbps, 48 KHz, 2 channels

Сэмпл: http://multi-up.com/884742

General
Complete name : D:Neulovimaja.koshka.2012.HDTVRip.avi
Format : AVI
Format/Info : Audio Video Interleave
File size : 699 MiB
Duration : 44mn 59s
Overall bit rate : 2 174 Kbps
Writing application : VirtualDubMod 1.5.10.3 | www.virtualdub-fr.org || (build 2550/release)
Writing library : VirtualDubMod build 2550/release

Video
ID : 0
Format : MPEG-4 Visual
Format profile : Advanced Simple@L5
Format settings, BVOP : 1
Format settings, QPel : No
Format settings, GMC : No warppoints
Format settings, Matrix : Custom
Codec ID : XVID
Codec ID/Hint : XviD
Duration : 44mn 59s
Bit rate : 1 972 Kbps
Width : 720 pixels
Height : 400 pixels
Display aspect ratio : 16:9
Frame rate : 25.000 fps
Color space : YUV
Chroma subsampling : 4:2:0
Bit depth : 8 bits
Scan type : Progressive
Compression mode : Lossy
Bits/(Pixel*Frame) : 0.274
Stream size : 635 MiB (91%)
Writing library : XviD 73

Audio
ID : 1
Format : MPEG Audio
Format version : Version 1
Format profile : Layer 2
Codec ID : 50
Duration : 44mn 59s
Bit rate mode : Constant
Bit rate : 192 Kbps
Channel(s) : 2 channels
Sampling rate : 48.0 KHz
Compression mode : Lossy
Stream size : 61.8 MiB (9%)
Alignment : Aligned on interleaves
Interleave, duration : 40 ms (1.00 video frame)
Interleave, preload duration : 504 ms







   Похожие торренты   Торрент   Размер 
В этой теме нет новых непрочитанных сообщений. National Geographic: Неуловимая кошка / The Phantom Cat (2012) HDTVRip-AVC от Тorrent-Хzona

5 | 4

625.65 МБ

В этой теме нет новых непрочитанных сообщений. National Geographic: Неуловимая росомаха / Phantom Wolverine (2010) HDTVrip-AVC от Тorrent-Хzona

12 | 2

653.31 МБ

В этой теме нет новых непрочитанных сообщений. National Geographic: Мега-слом: Истребитель "Фантом" / National Geographic: Megastuctures Mega Breakdown: Phantom jet (2011) TVRip

2 | 5

579.63 МБ

В этой теме нет новых непрочитанных сообщений. National Geographic: Атака нильского крокодила / National Geographic: Africa's Croc Attack (2012) HDTVRip от HitWay | P1

56 | 5

552.65 МБ

В этой теме нет новых непрочитанных сообщений. National Geographic. Шоссе через ад: Канада / National Geographic. Highway Thru Hell: Canada [S01] (2012) HDTVRip

21 | 13

6.05 ГБ

В этой теме нет новых непрочитанных сообщений. National Geographic. Супер паук / National Geographic. Super Spider (2012) HDTVRip - AVC от Тorrent-Хzona

179 | 7

593.4 МБ

В этой теме нет новых непрочитанных сообщений. National Geographic. Убийственная скорость / National Geographic. Speed Kills [01-03 из 03] (2012) HDTVRip-AVC от Torrent-Xzona

13 | 2

1.84 ГБ




Вы не можете начинать темы
Вы не можете отвечать на сообщения
Вы не можете редактировать свои сообщения
Вы не можете удалять свои сообщения
Вы не можете добавлять вложения

Перейти:  
Для Мосгорсуда, Роскомнадзора и рекламодателей: mosgorsud-torrent[собачка]yandex.ru
 Вход
ppkBB3cker v.2 © 2008-2014 @ PPK
[ Time : 0.029s | 15 Queries | GZIP : Off ]

Торрент трекер RUTOR.IN, Не можете зайти на rutor.org? Какой новый адрес рутор? Какое зеркало рутор? Не работает rutor.org и зеркала? Тогда наш торрент специально для вас. Rutor.in неофициальное зеркало rutor. В случае если у Вас заблокирован rutor или вдруг Вы не можете на него зайти, то Вы без труда сможете скачать бесплатно и без рекламы последние новинки кино, игр, сериалов и прочего у нас, на Rutor.in. Не нужно использовать прокси, чтобы зайти на рутор, достаточно воспользоваться нашим ресурсом. Все новые фильмы, игры, сериалы, книги и музыка за 2013 и 2014 годы через торрент бесплатно. Скачивайте фильмы в хорошем качестве, игры для пк, xbox, playstation без регистрации. У нас вы найдете новые Зарубежные сериалы и Русские сериалы 2013, 2014, 2015 годов. Оставайтесь с нами, качайте любимые фильмы, игры, сериалы, книги и музыку.
cron