img image001 image001 image001 image001 image001 image001 image001 image001 image001 image001 image001 image001 image001 image001 image001

Planets Sun Sun Sun
Статистика раздачи
Автор: Снежана | Размер: 5.04 ГБ | Добавлен: 25 июл 2013
Раздают: 97    Качают: 15
Скачать торрент
Скачать торрент
Описание торрента

СообщениеДобавлено: 25 июл 2013 

#77

Информация о фильме
Название: Discovery: Момент истины
Оригинальное название: Discovery: Moments in Time
Год выхода: 2003
Жанр: Документальный
Ведущий: Джеймс Вудс

О фильме:
С незапамятных времен великие события в разных уголках земного шара вершили историю нашего мира. Судьбоносные завоевания и сокрушительные поражения, переселение народов и открытие новых земель, гениальные государственные решения и роковые политические ошибки - что пережили нации и страны на своем долгом пути? Заглянув в скрижали истории, мы тщательно изучим факты и поступки, сформировавшие картину современного мира, чтобы высветить МОМЕНТЫ ИСТИНЫ, без которых наша жизнь была бы совершенно иной...



Страна: США
Студия: Discovery Channel
Продолжительность: 6 х 00:50:11
Перевод: Профессиональный многоголосый

Файл
Кодек: MPEG-4 AVC
Качество: BDRip (AVC)
Видео: ~ 2021 Кбит/с, 876x576, 896x576, 25.000 кадр/с
Звук:
Аудио: Русский (AC3, 2 ch, 192 Кбит/с)
Субтитры: Украинские (1-й эпизод)

Семпл

Нумерация серий подается по официальному списку сайта Дискавери
Эпизод 01: Армия Наполеона
Эпизод 02: Антоний и Клеопатра. Битва у мыса Акций
Эпизод 04: Вэлли Фордж. Суровое испытание
Эпизод 06: Крестоносцы
Эпизод 08: Проклятие крысы
Эпизод 10: Правда о Джеймстауне
Работа с аудио Викс
За постер, огромное спасибо команде Media-Art-Club!!!
Общее
Уникальный идентификатор : 178774867021329155929603411207434705681 (0x867EC976DE0D1E06B0027421BE669B11)
Полное имя : E:MCDiscovery.Moment.Istiny.(6.serij.iz.6).2003.x264.BDRip(AVC)-MediaClubDiscovery.Moment.Istiny.(6.serij.iz.6).2003.x264.BDRip(AVC)-MediaClubEpisod1.Armija.Napoleona.mkv
Формат : Matroska
Версия формата : Version 2
Размер файла : 795 Мбайт
Продолжительность : 50 м.
Общий поток : 2215 Кбит/сек
Название фильма : -= Release MediaClub =-
Дата кодирования : UTC 2013-07-06 15:35:55
Программа кодирования : mkvmerge v4.3.0 ('Escape from the Island') сборка от Sep 5 2010 10:30:51
Библиотека кодирования : libebml v1.0.0 + libmatroska v1.0.0

Видео
Идентификатор : 1
Формат : AVC
Формат/Информация : Advanced Video Codec
Профиль формата : Main@L4.1
Параметр CABAC формата : Да
Параметр ReFrames формата : 8 кадров
Идентификатор кодека : V_MPEG4/ISO/AVC
Продолжительность : 50 м.
Битрейт : 2021 Кбит/сек
Ширина : 876 пикселей
Высота : 576 пикселей
Соотношение сторон : 3:2
Режим частоты кадров : Постоянный
Частота кадров : 25,000 кадров/сек
Цветовое пространство : YUV
Субдискретизация насыщенности : 4:2:0
Битовая глубина : 8 бит
Тип развёртки : Прогрессивная
Бит/(Пиксели*Кадры) : 0.160
Размер потока : 710 Мбайт (89%)
Заголовок : Episod1.Armija.Napoleona
Библиотека кодирования : x264 core 130 r2273 b3065e6
Настройки программы : cabac=1 / ref=8 / deblock=1:-2:-2 / analyse=0x1:0x111 / me=umh / subme=11 / psy=1 / psy_rd=1.00:0.20 / mixed_ref=1 / me_range=48 / chroma_me=1 / trellis=2 / 8x8dct=0 / cqm=0 / deadzone=21,11 / fast_pskip=0 / chroma_qp_offset=-3 / threads=9 / lookahead_threads=1 / sliced_threads=0 / nr=0 / decimate=0 / interlaced=0 / bluray_compat=0 / constrained_intra=0 / bframes=8 / b_pyramid=2 / b_adapt=2 / b_bias=0 / direct=3 / weightb=1 / open_gop=0 / weightp=2 / keyint=240 / keyint_min=24 / scenecut=40 / intra_refresh=0 / rc_lookahead=40 / rc=2pass / mbtree=0 / bitrate=2021 / ratetol=1.0 / qcomp=0.60 / qpmin=0 / qpmax=69 / qpstep=4 / cplxblur=20.0 / qblur=0.5 / vbv_maxrate=50000 / vbv_bufsize=50000 / nal_hrd=none / ip_ratio=1.40 / pb_ratio=1.30 / aq=1:1.00
Язык : Russian
Default : Да
Forced : Да

Аудио
Идентификатор : 2
Формат : AC-3
Формат/Информация : Audio Coding 3
Расширение режима : CM (complete main)
Параметр Endianness формата : Big
Идентификатор кодека : A_AC3
Продолжительность : 50 м.
Вид битрейта : Постоянный
Битрейт : 192 Кбит/сек
Каналы : 2 канала
Расположение каналов : Front: L R
Частота : 48,0 КГц
Битовая глубина : 16 бит
Метод сжатия : С потерями
Размер потока : 68,9 Мбайт (9%)
Заголовок : Профессиональный многоголосый
Язык : Russian
Default : Да
Forced : Да

Текст
Идентификатор : 3
Формат : UTF-8
Идентификатор кодека : S_TEXT/UTF8
Идентификатор кодека/Информация : UTF-8 Plain Text
Заголовок : Украинские
Язык : Ukrainian
Default : Нет
Forced : Нет

Меню
00:00:00.000 : :Chapter 01
00:09:59.680 : :Chapter 02
00:19:25.880 : :Chapter 03
00:29:46.680 : :Chapter 04
00:39:31.000 : :Chapter 05
00:49:30.960 : :Chapter 06




Релиз от: Rip by



   Похожие торренты   Торрент   Размер 
В этой теме нет новых непрочитанных сообщений. Discovery. Момент истины. Крестоносцы / Discovery. Moments in time. The Crusades (2003) DVDRip-AVC от Тorrent-Хzona

18 | 3

689.88 МБ

В этой теме нет новых непрочитанных сообщений. Discovery. Момент истины. Армия Наполеона / Discovery. Moments in time. Napoleons lost army (2003) DVDRip-AVC от Тorrent-Хzona

1 | 2

692.35 МБ

В этой теме нет новых непрочитанных сообщений. Первый отряд. Момент истины / First Squad: The Moment Of Truth (2009) BDRip 720p

23 | 6

2.18 ГБ

В этой теме нет новых непрочитанных сообщений. Первый отряд: Момент истины / First Squad: The Moment of Truth (2009) BDRip от HQCLUB

321 | 9

1.09 ГБ

В этой теме нет новых непрочитанных сообщений. Момент Истины [эфир от 10.06] (2013) SATRip

2 | 1

578.59 МБ

В этой теме нет новых непрочитанных сообщений. Момент Истины [эфир от 23.09] (2013) IPTVRip

0 | 1

567.12 МБ

В этой теме нет новых непрочитанных сообщений. Момент Истины [эфир от 16.09] (2013) SATRip

0 | 1

559.92 МБ




Вы не можете начинать темы
Вы не можете отвечать на сообщения
Вы не можете редактировать свои сообщения
Вы не можете удалять свои сообщения
Вы не можете добавлять вложения

Перейти:  
Для Мосгорсуда, Роскомнадзора и рекламодателей: mosgorsud-torrent[собачка]yandex.ru
 Вход
ppkBB3cker v.2 © 2008-2014 @ PPK
[ Time : 0.078s | 14 Queries | GZIP : Off ]

Торрент трекер RUTOR.IN, Не можете зайти на rutor.org? Какой новый адрес рутор? Какое зеркало рутор? Не работает rutor.org и зеркала? Тогда наш торрент специально для вас. Rutor.in неофициальное зеркало rutor. В случае если у Вас заблокирован rutor или вдруг Вы не можете на него зайти, то Вы без труда сможете скачать бесплатно и без рекламы последние новинки кино, игр, сериалов и прочего у нас, на Rutor.in. Не нужно использовать прокси, чтобы зайти на рутор, достаточно воспользоваться нашим ресурсом. Все новые фильмы, игры, сериалы, книги и музыка за 2013 и 2014 годы через торрент бесплатно. Скачивайте фильмы в хорошем качестве, игры для пк, xbox, playstation без регистрации. У нас вы найдете новые Зарубежные сериалы и Русские сериалы 2013, 2014, 2015 годов. Оставайтесь с нами, качайте любимые фильмы, игры, сериалы, книги и музыку.