img image001 image001 image001 image001 image001 image001 image001 image001 image001 image001 image001 image001 image001 image001 image001

Planets Sun Sun Sun
Статистика раздачи
Автор: Снежана | Размер: 662.26 МБ | Добавлен: 25 июл 2013
Раздают: 9    Качают: 3
Скачать торрент
Скачать торрент
Описание торрента

СообщениеДобавлено: 25 июл 2013 


Инфомация о фильме
Название: Эфиопский волк
Оригинальное название: The Ethiopian Wolf
Год выхода: 2007
Жанр: Документальный
Режиссер: Шарль-Антуан де Ровьер
О фильме
В горном районе Эфиопии обитает единственный вид волка в Африке, одно из самых редких животных в мире. Этот вид находится на грани вымирания, так как по официальным данным, осталось менее пятисот особей. Вместе с создателями фильма мы наблюдаем за молодой волчицей Сабой, которая, расставшись с сородичами, отправляется в долгий и опасный путь по диким степям и ущельям, чтобы найти новую стаю.
Страна: Франция, Великобритания
Студия: Animal Planet, Marathon
Продолжительность: 00:48:54
Перевод: Профессиональный (одноголосый)
Файл
Формат: MKV
Качество: DVDRip-AVC
Видео: MPEG4 AVC 1024 x 576, 25.000 fps, 1700 - 1893 Кбит/с
Звук: MP-2, 2 ch, 192 Кбит/с
Субтитры: Нет

General
Unique ID : 208271093975005072699540772399754314425 (0x9CAF8DBB9785E3389D8A651D8FBD02B9)
Complete name : D:DownloadsEthiopian.Wolf.2007.x264.HDTVRip.(AVC).by.Тorrent-Хzona.mkv
Format : Matroska
Format version : Version 2
File size : 662 MiB
Duration : 48mn 54s
Overall bit rate : 1 893 Kbps
Encoded date : UTC 2013-07-10 21:22:33
Writing application : mkvmerge v6.1.0 ('Old Devil') built on Mar 4 2013 09:10:42
Writing library : libebml v1.3.0 + libmatroska v1.4.0
Video
ID : 1
Format : AVC
Format/Info : Advanced Video Codec
Format profile : High@L4.1
Format settings, CABAC : Yes
Format settings, ReFrames : 5 frames
Codec ID : V_MPEG4/ISO/AVC
Duration : 48mn 54s
Bit rate : 1 700 Kbps
Width : 1 024 pixels
Height : 576 pixels
Display aspect ratio : 16:9
Frame rate mode : Constant
Frame rate : 25.000 fps
Color space : YUV
Chroma subsampling : 4:2:0
Bit depth : 8 bits
Scan type : Progressive
Bits/(Pixel*Frame) : 0.115
Stream size : 582 MiB (88%)
Writing library : x264 core 130 r2273 b3065e6
Encoding settings : cabac=1 / ref=5 / deblock=1:-2:-2 / analyse=0x3:0x111 / me=umh / subme=9 / psy=1 / psy_rd=0.00:0.10 / mixed_ref=1 / me_range=32 / chroma_me=1 / trellis=2 / 8x8dct=1 / cqm=0 / deadzone=21,11 / fast_pskip=0 / chroma_qp_offset=-1 / threads=6 / lookahead_threads=1 / sliced_threads=0 / nr=0 / decimate=1 / interlaced=0 / bluray_compat=0 / constrained_intra=0 / bframes=5 / b_pyramid=2 / b_adapt=0 / b_bias=0 / direct=1 / weightb=1 / open_gop=0 / weightp=2 / keyint=250 / keyint_min=25 / scenecut=40 / intra_refresh=0 / rc_lookahead=50 / rc=2pass / mbtree=1 / bitrate=1700 / ratetol=1.0 / qcomp=0.60 / qpmin=0 / qpmax=69 / qpstep=4 / cplxblur=20.0 / qblur=0.5 / ip_ratio=1.40 / aq=1:1.00
Default : Yes
Forced : No
Audio
ID : 2
Format : MPEG Audio
Format version : Version 1
Format profile : Layer 2
Codec ID : A_MPEG/L2
Codec ID/Hint : MP2
Duration : 48mn 54s
Bit rate mode : Constant
Bit rate : 192 Kbps
Channel(s) : 2 channels
Sampling rate : 48.0 KHz
Compression mode : Lossy
Delay relative to video : 44ms
Stream size : 67.2 MiB (10%)
Language : Russian
Default : Yes
Forced : No



Релиз от: &



   Похожие торренты   Торрент   Размер 
В этой теме нет новых непрочитанных сообщений. Последний волк / Волк / Majimak Neukdae / Wolf returns / The Last Wolf (2004) DVDRip | L1

4 | 1

1.46 ГБ

В этой теме нет новых непрочитанных сообщений. BBC: Поле битвы. Волки / Wolf Battlefield (2002) DVDRip-AVC от Тorrent-Хzona

42 | 3

665.55 МБ

В этой теме нет новых непрочитанных сообщений. National Geographic: Доисторические хищники. Древний страшный серый волк / Prehistoric Predators. Dire Wolf (2007) HDTVRip от ExKinoRay

53 | 10

697.85 МБ

В этой теме нет новых непрочитанных сообщений. Суицидальный туризм / The Suicide Tourist (2007) HDTVRip-AVC от Тorrent-Хzona

0 | 1

776.23 МБ

В этой теме нет новых непрочитанных сообщений. BBC: Великие воины. Кортес. / BBC: Warriors. Cortes (2007) HDTVRip-AVC от Тorrent-Хzona

40 | 2

695.88 МБ

В этой теме нет новых непрочитанных сообщений. BBC: Великие воины. Спартак / BBC: Warriors. Spartacus (2007) HDTVRip-AVC от Тorrent-Хzona | P2

22 | 9

684.53 МБ

В этой теме нет новых непрочитанных сообщений. BBC: Земля - Мощь планеты / BBC: Earth - The Power Of The Planet [01-05 из 05] (2007) HDTVRip-AVC от Тorrent-Хzona

29 | 4

3.47 ГБ




Вы не можете начинать темы
Вы не можете отвечать на сообщения
Вы не можете редактировать свои сообщения
Вы не можете удалять свои сообщения
Вы не можете добавлять вложения

Перейти:  
Для Мосгорсуда, Роскомнадзора и рекламодателей: mosgorsud-torrent[собачка]yandex.ru
 Вход
ppkBB3cker v.2 © 2008-2014 @ PPK
[ Time : 0.146s | 14 Queries | GZIP : Off ]

Торрент трекер RUTOR.IN, Не можете зайти на rutor.org? Какой новый адрес рутор? Какое зеркало рутор? Не работает rutor.org и зеркала? Тогда наш торрент специально для вас. Rutor.in неофициальное зеркало rutor. В случае если у Вас заблокирован rutor или вдруг Вы не можете на него зайти, то Вы без труда сможете скачать бесплатно и без рекламы последние новинки кино, игр, сериалов и прочего у нас, на Rutor.in. Не нужно использовать прокси, чтобы зайти на рутор, достаточно воспользоваться нашим ресурсом. Все новые фильмы, игры, сериалы, книги и музыка за 2013 и 2014 годы через торрент бесплатно. Скачивайте фильмы в хорошем качестве, игры для пк, xbox, playstation без регистрации. У нас вы найдете новые Зарубежные сериалы и Русские сериалы 2013, 2014, 2015 годов. Оставайтесь с нами, качайте любимые фильмы, игры, сериалы, книги и музыку.