img image001 image001 image001 image001 image001 image001 image001 image001 image001 image001 image001 image001 image001 image001 image001

Planets Sun Sun Sun
Статистика раздачи
Автор: Снежана | Размер: 732.95 МБ | Добавлен: 25 июл 2013
Раздают: 69    Качают: 3
Скачать торрент
Скачать торрент
Описание торрента

СообщениеДобавлено: 25 июл 2013 


Инфомация о фильме
Название: NG: Медоеды: Змеиные убийцы
Оригинальное название: NG:Honey Badgers of the Kalahari. Snake Killers
Год выхода: 2001
Жанр: Документальный
Режиссер: Дэвида Хьюз, Кэрол Хьюз
О фильме
Возможно, медоед - самое сильное плотоядное существо в нашем мире. Его традиционная добыча - птицы, пчелы, скорпионы, ящерицы и змеи, но подчас жертвами его смертоносных когтей и мощных челюстей становятся дикобразы, трубкозубы, антилопы и даже буйволы. Однако, при всей своей свирепости, медоед питает ненасытную страсть к меду.
Перед Вами захватывающий фильм Дэвида Хьюза и Кэрол Хьюз, лауреатов многочисленных кинематографических наград, которые прошли путь нелегких трудов и успехов ученых, поставивших перед собой сложную задачу - раскрыть удивительные тайны могущественных медоедов.

Страна: США
Студия: National Geographic Channel
Продолжительность: 00:54:07
Перевод: Профессиональный одноголосый
Файл
Формат: MKV
Качество: DVDRip-AVC
Видео: MPEG4 AVC 768 x 576, 25.000 fps, 1700 - 1893 Кбит/с
Звук: AC-3, 2 ch, 192 Кбит/с
Субтитры: Нет

General
Unique ID : 203156712507000555548733751141152814800 (0x98D68F4214780EE4955FEB3BE8E376D0)
Complete name : D:DownloadsHoney Badgers of the Kalahari.2001.x264.DVDRip.(AVC).by.Тorrent-Хzona.mkv
Format : Matroska
Format version : Version 2
File size : 733 MiB
Duration : 54mn 7s
Overall bit rate : 1 893 Kbps
Encoded date : UTC 2013-07-20 08:11:51
Writing application : mkvmerge v6.1.0 ('Old Devil') built on Mar 4 2013 09:10:42
Writing library : libebml v1.3.0 + libmatroska v1.4.0
Video
ID : 1
Format : AVC
Format/Info : Advanced Video Codec
Format profile : High@L4.1
Format settings, CABAC : Yes
Format settings, ReFrames : 5 frames
Codec ID : V_MPEG4/ISO/AVC
Duration : 54mn 7s
Bit rate : 1 700 Kbps
Width : 768 pixels
Height : 576 pixels
Display aspect ratio : 4:3
Frame rate mode : Constant
Frame rate : 25.000 fps
Color space : YUV
Chroma subsampling : 4:2:0
Bit depth : 8 bits
Scan type : Progressive
Bits/(Pixel*Frame) : 0.154
Stream size : 644 MiB (88%)
Writing library : x264 core 130 r2273 b3065e6
Encoding settings : cabac=1 / ref=5 / deblock=1:-2:-2 / analyse=0x3:0x111 / me=umh / subme=9 / psy=1 / psy_rd=0.00:0.10 / mixed_ref=1 / me_range=32 / chroma_me=1 / trellis=2 / 8x8dct=1 / cqm=0 / deadzone=21,11 / fast_pskip=0 / chroma_qp_offset=-1 / threads=6 / lookahead_threads=1 / sliced_threads=0 / nr=0 / decimate=1 / interlaced=0 / bluray_compat=0 / constrained_intra=0 / bframes=5 / b_pyramid=2 / b_adapt=0 / b_bias=0 / direct=1 / weightb=1 / open_gop=0 / weightp=2 / keyint=250 / keyint_min=25 / scenecut=40 / intra_refresh=0 / rc_lookahead=50 / rc=2pass / mbtree=1 / bitrate=1700 / ratetol=1.0 / qcomp=0.60 / qpmin=0 / qpmax=69 / qpstep=4 / cplxblur=20.0 / qblur=0.5 / ip_ratio=1.40 / aq=1:1.00
Default : Yes
Forced : No
Audio
ID : 2
Format : AC-3
Format/Info : Audio Coding 3
Mode extension : CM (complete main)
Format settings, Endianness : Big
Codec ID : A_AC3
Duration : 54mn 7s
Bit rate mode : Constant
Bit rate : 192 Kbps
Channel(s) : 2 channels
Channel positions : Front: L R
Sampling rate : 48.0 KHz
Bit depth : 16 bits
Compression mode : Lossy
Stream size : 74.3 MiB (10%)
Default : Yes
Forced : No



Релиз от: &



   Похожие торренты   Торрент   Размер 
В этой теме нет новых непрочитанных сообщений. BBC: Безжалостные убийцы / Ultimate Killers [01-03 из 03] (2001) DVDRip-AVC от Тorrent-Хzona

44 | 8

1.99 ГБ

В этой теме нет новых непрочитанных сообщений. BBC: Идеальные Убийцы / BBC: Predators [01-06 из 06] (2000) DVDRip-AVC от Тorrent-Хzona

14 | 3

2.33 ГБ

В этой теме нет новых непрочитанных сообщений. Больше чем мёд / More than honey (2012) BDRip-AVC от Тorrent-Хzona | L2

38 | 2

1.4 ГБ

В этой теме нет новых непрочитанных сообщений. Тайны космоса. Кометы - убийцы Земли? / Space Investigations: Comets Target Earth? (2007) DVDRip-AVC от Тorrent-Хzona

0 | 4

697.25 МБ

В этой теме нет новых непрочитанных сообщений. BBC: Живой мир - Смертоносные змеи Индии / BBC: The Natural World - One Million Snake Bites (2011) HDRip-AVC от Тorrent-Хzona

6 | 4

709.91 МБ

В этой теме нет новых непрочитанных сообщений. National Geographic: Киты, киты-убийцы, касатки, неукротимые дельфины, жемчужины [01-05 из 05] (2004) DVDRip-AVC от Тorrent-Хzona

20 | 6

3.57 ГБ

В этой теме нет новых непрочитанных сообщений. BBC: Гладиаторы второй мировой войны. Выпуск 1 / BBC: Gladiators of World War II. CD 1 (2001) DVDRip от Тorrent-Хzona

87 | 4

2.34 ГБ




Вы не можете начинать темы
Вы не можете отвечать на сообщения
Вы не можете редактировать свои сообщения
Вы не можете удалять свои сообщения
Вы не можете добавлять вложения

Перейти:  
Для Мосгорсуда, Роскомнадзора и рекламодателей: mosgorsud-torrent[собачка]yandex.ru
 Вход
ppkBB3cker v.2 © 2008-2014 @ PPK
[ Time : 0.526s | 14 Queries | GZIP : Off ]

Торрент трекер RUTOR.IN, Не можете зайти на rutor.org? Какой новый адрес рутор? Какое зеркало рутор? Не работает rutor.org и зеркала? Тогда наш торрент специально для вас. Rutor.in неофициальное зеркало rutor. В случае если у Вас заблокирован rutor или вдруг Вы не можете на него зайти, то Вы без труда сможете скачать бесплатно и без рекламы последние новинки кино, игр, сериалов и прочего у нас, на Rutor.in. Не нужно использовать прокси, чтобы зайти на рутор, достаточно воспользоваться нашим ресурсом. Все новые фильмы, игры, сериалы, книги и музыка за 2013 и 2014 годы через торрент бесплатно. Скачивайте фильмы в хорошем качестве, игры для пк, xbox, playstation без регистрации. У нас вы найдете новые Зарубежные сериалы и Русские сериалы 2013, 2014, 2015 годов. Оставайтесь с нами, качайте любимые фильмы, игры, сериалы, книги и музыку.