img image001 image001 image001 image001 image001 image001 image001 image001 image001 image001 image001 image001 image001 image001 image001

Planets Sun Sun Sun
Статистика раздачи
Автор: Снежана | Размер: 699.55 МБ | Добавлен: 25 июл 2013
Раздают: 28    Качают: 3
Скачать торрент
Скачать торрент
Описание торрента

СообщениеДобавлено: 25 июл 2013 

Война львов
Lion Battle Zone



#77

Год выпуска: 2011
Страна: США
Жанр: Документальный
Продолжительность: 00:44:59
Перевод: Профессиональный (дублированный) | Александр Гаврилин / АРК·ТВ
Русские субтитры: нет


Режиссер: Джейм Бернанке / Jaime Bernanke

Описание: Пять львиных прайдов в Африке живут в постоянной конкуренции за пищу, и каждый из них уже выработал свой собственный стиль охоты. Понаблюдайте за тем, как они охотятся за своей добычей: от буйвола до жирафа. Только самые хитрые и искусные охотники смогут выжить в этой среде.


Автор рипа: Leo.pard
Исходник: HDTV 1080i Спасибо LeXa 84!


Kачество: HDTVRip
Формат: AVI
Видео: XviD, 720x400 (16:9), 1972 Kbps, 25 fps
Аудио: MP2, 192 Kbps, 48 KHz, 2 channels

Сэмпл: http://multi-up.com/886695

General
Complete name : D:Vojna.l'vov.2011.HDTVRip.avi
Format : AVI
Format/Info : Audio Video Interleave
File size : 700 MiB
Duration : 44mn 59s
Overall bit rate : 2 174 Kbps
Writing application : VirtualDubMod 1.5.10.3 | www.virtualdub-fr.org || (build 2550/release)
Writing library : VirtualDubMod build 2550/release

Video
ID : 0
Format : MPEG-4 Visual
Format profile : Advanced Simple@L5
Format settings, BVOP : 1
Format settings, QPel : No
Format settings, GMC : No warppoints
Format settings, Matrix : Custom
Codec ID : XVID
Codec ID/Hint : XviD
Duration : 44mn 59s
Bit rate : 1 972 Kbps
Width : 720 pixels
Height : 400 pixels
Display aspect ratio : 16:9
Frame rate : 25.000 fps
Color space : YUV
Chroma subsampling : 4:2:0
Bit depth : 8 bits
Scan type : Progressive
Compression mode : Lossy
Bits/(Pixel*Frame) : 0.274
Stream size : 635 MiB (91%)
Writing library : XviD 73

Audio
ID : 1
Format : MPEG Audio
Format version : Version 1
Format profile : Layer 2
Codec ID : 50
Duration : 44mn 59s
Bit rate mode : Constant
Bit rate : 192 Kbps
Channel(s) : 2 channels
Sampling rate : 48.0 KHz
Compression mode : Lossy
Stream size : 61.8 MiB (9%)
Alignment : Aligned on interleaves
Interleave, duration : 40 ms (1.00 video frame)
Interleave, preload duration : 504 ms







   Похожие торренты   Торрент   Размер 
В этой теме нет новых непрочитанных сообщений. Война львов / Lion Battle Zone (2011) HDTVRip-AVC от Тorrent-Хzona

11 | 2

625.62 МБ

В этой теме нет новых непрочитанных сообщений. Nat Geo Wild: Кевин Ричардсон - Заклинатель львов / Kevin Richardson - Lion Whisperer (2013) HDTVRip-AVC от Leo.pard | P1

17 | 19

700.43 МБ

В этой теме нет новых непрочитанных сообщений. Nat Geo Wild: Кевин Ричардсон - Заклинатель львов / Kevin Richardson - Lion Whisperer (2013) HDTVRip от Leo.pard | P1

86 | 9

700.34 МБ

В этой теме нет новых непрочитанных сообщений. Nat Geo Wild: Игры львов / Game of Lions (2013) HDTVRip от Leo.pard | D

98 | 6

700.29 МБ

В этой теме нет новых непрочитанных сообщений. Nat Geo Wild: Игры львов / Game of Lions (2013) HDTVRip-AVC от Leo.pard | D

63 | 12

699.33 МБ

В этой теме нет новых непрочитанных сообщений. National Geographic: Армия львов: Битва за выживание / Lion Army. Battle To Survive (2009) HDTVRip от AndrewWhite

8 | 10

698.6 МБ

В этой теме нет новых непрочитанных сообщений. National Geographic. Дикая Ботсвана: Братство львов / Wild Botswana: Lion Brotherhood (2014) HDTVRip от -=HD-NET=-

82 | 6

600.63 МБ




Вы не можете начинать темы
Вы не можете отвечать на сообщения
Вы не можете редактировать свои сообщения
Вы не можете удалять свои сообщения
Вы не можете добавлять вложения

Перейти:  
Для Мосгорсуда, Роскомнадзора и рекламодателей: mosgorsud-torrent[собачка]yandex.ru
 Вход
ppkBB3cker v.2 © 2008-2014 @ PPK
[ Time : 1.677s | 15 Queries | GZIP : On ]

Торрент трекер RUTOR.IN, Не можете зайти на rutor.org? Какой новый адрес рутор? Какое зеркало рутор? Не работает rutor.org и зеркала? Тогда наш торрент специально для вас. Rutor.in неофициальное зеркало rutor. В случае если у Вас заблокирован rutor или вдруг Вы не можете на него зайти, то Вы без труда сможете скачать бесплатно и без рекламы последние новинки кино, игр, сериалов и прочего у нас, на Rutor.in. Не нужно использовать прокси, чтобы зайти на рутор, достаточно воспользоваться нашим ресурсом. Все новые фильмы, игры, сериалы, книги и музыка за 2013 и 2014 годы через торрент бесплатно. Скачивайте фильмы в хорошем качестве, игры для пк, xbox, playstation без регистрации. У нас вы найдете новые Зарубежные сериалы и Русские сериалы 2013, 2014, 2015 годов. Оставайтесь с нами, качайте любимые фильмы, игры, сериалы, книги и музыку.
cron