img image001 image001 image001 image001 image001 image001 image001 image001 image001 image001 image001 image001 image001 image001 image001

Planets Sun Sun Sun

COVID-19 - Последняя информация о коронавирусе на сайте Минздрава


Статистика раздачи
Автор: Снежана | Размер: 1.37 ГБ | Добавлен: 19 июл 2013
Раздают: 29    Качают: 5
Скачать торрент
Скачать торрент
Описание торрента

СообщениеДобавлено: 19 июл 2013 

#77


Информация о фильме
Название: Флот МакХэйла / Убрать перископ 2
Оригинальное название: McHale's Navy
Год выпуска : 1997
Страна : США
Жанр : Комедия
Продолжительность : 1:48:37
Перевод : Профессиональный одноголосый
Режиссер : Bryan Spicer / Брайан Спайсер
В ролях : Тома Арнольд, Дин Стокуэлл, Дебра Мессинг, Дэвид Влан Гриер, Тим Курри, Эрнест Боргнин, Брюс Кэмпбэлл, Френч Стюарт, Дантон Стоун, Брайан Хэйли, Генри Чо

Описание :
На маленьком островном государстве в Карибском бассейне снова хотят кататься на лимузинах и есть икру ложками. Но для этого надо привести в порядок пришедший к власти народ. За чемодан с деньгами нанимают террориста номер 2 по имени Владыкин, и ставят целью посеять смуту. На соседнем острове находится небольшая воинская часть ВМФ США - веселые такие разгильдяи, обожающие играть с месной детворой, почитывать "Плэйбой" и пожирать мороженое под руководством Тома Арнолда. А тут прибывает новое начальство, решительно настроенное навести образцовый порядок. Приплюсуйте к этому майора Владыкина, угрожающего жизни и благополучию американских матросов и мирному населению, и Вы получите комедию "Убрать перископ 2".



Продолжительность: 01:48:00
Перевод: профессиональный одноголосный

Файл
Кодек: DivX
Качество: DVDRip
Видео: 640x352, 25.000 fps, 1 536 Kbps
Звук: AC-3, 2 channels, 256 Kbps
Код:
   General
      Format : AVI
      Format/Info : Audio Video Interleave
      File size : 1.37 GiB
      Duration : 1h 48mn
      Overall bit rate : 1 800 Kbps
      Writing application : Nandub v1.0rc2
   Video
      Format : MPEG-4 Visual
      Format settings, BVOP : Yes
      Format settings, QPel : No
      Format settings, GMC : No warppoints
      Format settings, Matrix : Default
      Codec ID : DX50
      Codec ID/Hint : DivX 5
      Duration : 1h 48mn
      Bit rate : 1 536 Kbps
      Width : 640 pixels
      Height : 352 pixels
      Display aspect ratio : 16/9
      Frame rate : 25.000 fps
      Resolution : 24 bits
      Colorimetry : 4:2:0
      Scan type : Progressive
      Bits/(Pixel*Frame) : 0.273
      Stream size : 1.17 GiB (85%)
      Writing library : DivX 6.0.0 (UTC 2005-06-15)
   Audio
      Format : AC-3
      Format/Info : Audio Coding 3
      Codec ID : 2000
      Duration : 1h 48mn
      Bit rate mode : Constant
      Bit rate : 256 Kbps
      Channel(s) : 2 channels
      Channel positions : L R
      Sampling rate : 48.0 KHz
      Stream size : 199 MiB (14%)
      Alignment : Aligned on interleaves
      Interleave, duration : 64 ms (1.60 video frames)
      Interleave, preload duration : 64 ms





   Похожие торренты   Торрент   Размер 
В этой теме нет новых непрочитанных сообщений. Убрать перископ / Down Periscope (1996) HDRip от Scarabey | P

87 | 0

1.45 ГБ

В этой теме нет новых непрочитанных сообщений. Убрать перископ / Down Periscope (1996) WEB-DLRip от MegaPeer | A, P, P2

348 | 44

2.21 ГБ

В этой теме нет новых непрочитанных сообщений. Убрать перископ / Down Periscope (Дэвид С. Уорд) [1996, комедия, WEB-DLRip-AVC] AVO+DVO

4 | 0

745.81 МБ

В этой теме нет новых непрочитанных сообщений. Морские ведьмы / Hellcats of the Navy (1957) DVDRip | P1

21 | 1

1.38 ГБ

В этой теме нет новых непрочитанных сообщений. В тупике / Gridlock'd (1997) DVDRip-AVC | P, P2, L1

218 | 9

2.96 ГБ

В этой теме нет новых непрочитанных сообщений. Поцелуй змея / The Serpent's Kiss (1997) DVDRip | P2

21 | 0

740.79 МБ

В этой теме нет новых непрочитанных сообщений. Вкус вишни / Ta'm e guilass (1997) DVDRip от Scarabey | P

41 | 5

1.44 ГБ




Вы не можете начинать темы
Вы не можете отвечать на сообщения
Вы не можете редактировать свои сообщения
Вы не можете удалять свои сообщения
Вы не можете добавлять вложения

Перейти:  
Контактная информация: rstracker[пёсик]yandex.ru
 Вход
ppkBB3cker v.2 © 2008-2014 @ PPK
[ Time : 0.039s | 15 Queries | GZIP : Off ]

cron