img image001 image001 image001 image001 image001 image001 image001 image001 image001 image001 image001 image001 image001 image001 image001

Planets Sun Sun Sun
Статистика раздачи
Автор: Снежана | Размер: 1.94 ГБ | Добавлен: 20 июл 2013
Раздают: 4    Качают: 36
Скачать торрент
Скачать торрент
Описание торрента

СообщениеДобавлено: 20 июл 2013 

Слуга, или правдивая история Бан-чжа / The Servant / Bang-ja-jeon



Страна: Южная Корея
Жанр: Драма, Исторический, Эротика
Год выпуска: 2010
Продолжительность: 02:04:361

Перевод: Авторский (одноголосый закадровый) Доп.инфо о переводе @PD
Cубтитры: русские
Режиссер: Ким Дай-ву / Kim Dae-woo

В ролях: КИМ Чжу-хьюк, РЮО Сенг-бум и ЧО Ео-чжен

Описание: Известный в городе бандит, господин Йи, приглашает популярного в народе писателя для того, чтобы тот написал книгу о его жизни. Тот с радостью соглашается взяться за эту работу, даже не догадываясь о том, какая печальная история ждет его впереди. Как ни странно, но в истории жизнеописания бандита главное место занимает любовь. Страстная, полная жарких эмоций, вожделения и, как правило, неизменно следующего за всем этим подлого коварства и обмана...

SAMPLE
Качество видео: DVDRip
Формат видео: MKV

Видео: 720х304 pixels, 23.976 fps, 1 318 Kbps
Аудио: AC-3, 6 ch, 448 Kbs, 48.0 KHz
Аудио 2: AC-3, 6 ch, 448 Kbs, 48.0 KHz
Формат субтитров: softsub (SRT)
General
Complete name : Слуга - The Servant (2010).mkv
Format : Matroska
File size : 1.94 GiB
Duration : 2h 4mn
Overall bit rate : 2 221 Kbps
Encoded date : UTC 2010-12-03 12:38:12
Writing application : mkvmerge v3.0.0 ('Hang up your Hang-Ups') built on Dec 12 2009 15:20:35
Writing library : libebml v0.7.9 + libmatroska v0.8.1

Video
ID : 1
Format : AVC
Format/Info : Advanced Video Codec
Format profile : High@L4.1
Format settings, CABAC : Yes
Format settings, ReFrames : 3 frames
Format settings, GOP : M=4, N=16
Codec ID : V_MPEG4/ISO/AVC
Duration : 2h 4mn
Bit rate mode : Variable
Bit rate : 1 318 Kbps
Maximum bit rate : 14.0 Mbps
Width : 720 pixels
Height : 304 pixels
Display aspect ratio : 2.35:1
Frame rate : 23.976 fps
Color space : YUV
Chroma subsampling : 4:2:0
Bit depth : 8 bits
Scan type : Progressive
Bits/(Pixel*Frame) : 0.251
Stream size : 1.12 GiB (58%)
Writing library : x264 core 105 r1732 2b04482
Encoding settings : cabac=1 / ref=4 / deblock=1:0:0 / analyse=0x3:0x113 / me=hex / subme=7 / psy=1 / psy_rd=1.00:0.00 / mixed_ref=1 / me_range=16 / chroma_me=1 / trellis=1 / 8x8dct=1 / cqm=0 / deadzone=21,11 / fast_pskip=1 / chroma_qp_offset=-2 / threads=3 / sliced_threads=0 / slices=4 / nr=0 / decimate=1 / interlaced=0 / constrained_intra=0 / bframes=3 / b_pyramid=1 / b_adapt=1 / b_bias=0 / direct=1 / weightb=1 / open_gop=0 / weightp=0 / keyint=24 / keyint_min=2 / scenecut=40 / intra_refresh=0 / rc_lookahead=24 / rc=2pass / mbtree=1 / bitrate=1318 / ratetol=1.0 / qcomp=0.60 / qpmin=10 / qpmax=51 / qpstep=4 / cplxblur=20.0 / qblur=0.5 / vbv_maxrate=14000 / vbv_bufsize=14500 / ip_ratio=1.40 / aq=1:1.00 / nal_hrd=vbr
Language : English
Color primaries : BT.709-5, BT.1361, IEC 61966-2-4, SMPTE RP177
Transfer characteristics : BT.709-5, BT.1361
Matrix coefficients : BT.709-5, BT.1361, IEC 61966-2-4 709, SMPTE RP177

Audio #1
ID : 2
Format : AC-3
Format/Info : Audio Coding 3
Mode extension : CM (complete main)
Codec ID : A_AC3
Duration : 2h 4mn
Bit rate mode : Constant
Bit rate : 448 Kbps
Channel(s) : 6 channels
Channel positions : Front: L C R, Side: L R, LFE
Sampling rate : 48.0 KHz
Bit depth : 16 bits
Stream size : 400 MiB (20%)
Title : Авторский перевод @PD
Language : Russian

Audio #2
ID : 3
Format : AC-3
Format/Info : Audio Coding 3
Mode extension : CM (complete main)
Codec ID : A_AC3
Duration : 2h 4mn
Bit rate mode : Constant
Bit rate : 448 Kbps
Channel(s) : 6 channels
Channel positions : Front: L C R, Side: L R, LFE
Sampling rate : 48.0 KHz
Bit depth : 16 bits
Stream size : 400 MiB (20%)
Language : Korean

Text #1
ID : 4
Format : UTF-8
Codec ID : S_TEXT/UTF8
Codec ID/Info : UTF-8 Plain Text
Title : Авторский перевод @PD
Language : Russian

Text #2
ID : 5
Format : VobSub
Muxing mode : zlib
Codec ID : S_VOBSUB
Codec ID/Info : The same subtitle format used on DVDs
Language : English

Text #3
ID : 6
Format : VobSub
Muxing mode : zlib
Codec ID : S_VOBSUB
Codec ID/Info : The same subtitle format used on DVDs
Language : English

Text #4
ID : 7
Format : VobSub
Muxing mode : zlib
Codec ID : S_VOBSUB
Codec ID/Info : The same subtitle format used on DVDs
Language : Korean

Text #5
ID : 8
Format : VobSub
Muxing mode : zlib
Codec ID : S_VOBSUB
Codec ID/Info : The same subtitle format used on DVDs
Language : Korean






Скриншоты:


Релиз: от и



   Похожие торренты   Торрент   Размер 
В этой теме нет новых непрочитанных сообщений. Слуга. Правдивая история Пан Джа / Servant, the untold story of Bang-Ja [01-04] (2011) WEBRip 720p

13 | 7

3.46 ГБ

В этой теме нет новых непрочитанных сообщений. Слуга / The Servant (1963) DVDRip от Pshichko66

6 | 0

1.46 ГБ

В этой теме нет новых непрочитанных сообщений. Правдивая история об Алых парусах [s01-04 из 04) (2010) WEB-DLRip

79 | 26

2.53 ГБ

В этой теме нет новых непрочитанных сообщений. Правдивая история об Алых парусах [01-04 серия из 04] (2010) SATRip

9 | 3

1.76 ГБ

В этой теме нет новых непрочитанных сообщений. Джеймс Олдридж - Правдивая история Лилли Стьюбек (2010) (2011) МР3

0 | 2

421.94 МБ

В этой теме нет новых непрочитанных сообщений. Майор «Вихрь»: правдивая история [2008, документальный, война, история, SATRip]

6 | 0

770.61 МБ

В этой теме нет новых непрочитанных сообщений. Правдивая история красной шапки / Hoodwinked (2005) DVDRip

46 | 2

696.71 МБ




Вы не можете начинать темы
Вы не можете отвечать на сообщения
Вы не можете редактировать свои сообщения
Вы не можете удалять свои сообщения
Вы не можете добавлять вложения

Перейти:  
Для Мосгорсуда, Роскомнадзора и рекламодателей: mosgorsud-torrent[собачка]yandex.ru
 Вход
ppkBB3cker v.2 © 2008-2014 @ PPK
[ Time : 0.048s | 18 Queries | GZIP : Off ]

Торрент трекер RUTOR.IN, Не можете зайти на rutor.org? Какой новый адрес рутор? Какое зеркало рутор? Не работает rutor.org и зеркала? Тогда наш торрент специально для вас. Rutor.in неофициальное зеркало rutor. В случае если у Вас заблокирован rutor или вдруг Вы не можете на него зайти, то Вы без труда сможете скачать бесплатно и без рекламы последние новинки кино, игр, сериалов и прочего у нас, на Rutor.in. Не нужно использовать прокси, чтобы зайти на рутор, достаточно воспользоваться нашим ресурсом. Все новые фильмы, игры, сериалы, книги и музыка за 2013 и 2014 годы через торрент бесплатно. Скачивайте фильмы в хорошем качестве, игры для пк, xbox, playstation без регистрации. У нас вы найдете новые Зарубежные сериалы и Русские сериалы 2013, 2014, 2015 годов. Оставайтесь с нами, качайте любимые фильмы, игры, сериалы, книги и музыку.
cron