img image001 image001 image001 image001 image001 image001 image001 image001 image001 image001 image001 image001 image001 image001 image001

Planets Sun Sun Sun

COVID-19 - Последняя информация о коронавирусе на сайте Минздрава


Статистика раздачи
Автор: Снежана | Размер: 5.01 ГБ | Добавлен: 19 июл 2013
Раздают: 11    Качают: 5
Скачать торрент
Скачать торрент
Описание торрента

СообщениеДобавлено: 19 июл 2013 

#77
Информация о фильме
Название: Миллионер из трущоб
Оригинальное название: Slumdog Millionaire
Год выхода: 2008
Жанр: Драма, мелодрама, криминал
Режиссер: Дэнни Бойл /Danny Boyle/, Лавлин Тандан /Loveleen Tandan/
В ролях: Дев Патель /Dev Patel/, Анил Капур /Anil Kapoor/, Саурабх Шукла /Saurabh Shukla/, Рахендранат Зутши /Rajendranath Zutshi/, Женева Талвар /Jeneva Talwar/, Фрейда Пинто /Freida Pinto/, Ирфан Кхан /Irrfan Khan/

О фильме:
18-летний сирота из трущоб в Мумбаи, всего в одном шаге от победы в телеигре «Кто хочет стать миллионером?» и выигрыша 20 миллионов рупий. Прервав игру, его арестовывает полиция по подозрению в мошенничестве. Откуда юнец, выросший на улице, может знать так много? На допросе в полиции Джамал рассказывает печальную историю своей жизни: о пережитых приключениях вместе с братом, о стычках с местными бандами, о своей трагической любви. Каждая глава личной истории удивительным образом дала ему ответы на вопросы телевикторины. Когда игру возобновят, инспектору полиции и шестидесяти миллионам зрителей захочется выяснить ответ только на один вопрос: зачем этот юноша, без явного стремления к богатству, решил принять участие в телепрограмме?

Файл:
Формат: MKV
Качество: BDRip (источник: Blu-ray)
Видео: 1280 x 544 (720p) x264 @ 4736 Kbps
Звук 1: English 5.1 AC3 @ 448 Kbps | 02:00:36
Звук 2: Russian 5.1 DTS @ 768 Kbps | 02:00:36



Общее
Уникальный идентификатор : 179264404394477888503267190146690246177 (0x86DD11853149E2CFB8D5C60F0270E621)
Полное имя : Slumdog.Millionaire.720p.BDRip.x264.Rus.Eng.mkv
Формат : Matroska
Версия формата : Version 1
Размер файла : 5,01 Гбайт
Продолжительность : 2 ч. 0 м.
Общий поток : 5942 Кбит/сек
Дата кодирования : UTC 2009-03-26 08:34:28
Программа кодирования : mkvmerge v2.5.1 ('He Wasn't There') built on Feb 22 2009 18:19:47
Библиотека кодирования : libebml v0.7.7 + libmatroska v0.8.1

Видео
Идентификатор : 1
Формат : AVC
Формат/Информация : Advanced Video Codec
Профиль формата : High@L4.1
Параметр CABAC формата : Да
Параметр ReFrames формата : 5 кадров
Идентификатор кодека : V_MPEG4/ISO/AVC
Продолжительность : 2 ч. 0 м.
Битрейт : 4736 Кбит/сек
Ширина : 1280 пикселей
Высота : 544 пикселя
Соотношение сторон : 2,35:1
Частота кадров : 23,976 кадра/сек
Цветовое пространство : YUV
Субдискретизация насыщенности : 4:2:0
Битовая глубина : 8 бит
Тип развёртки : Прогрессивная
Бит/(Пиксели*Кадры) : 0.284
Размер потока : 3,89 Гбайт (78%)
Заголовок : Slumdog Millionaire 720p @ TmG
Библиотека кодирования : x264 core 67 r1128M 682b54d
Настройки программы : cabac=1 / ref=5 / deblock=1:-1:-1 / analyse=0x3:0x113 / me=umh / subme=7 / psy_rd=1.0:0.0 / mixed_ref=1 / me_range=16 / chroma_me=1 / trellis=2 / 8x8dct=1 / cqm=0 / deadzone=21,11 / chroma_qp_offset=-2 / threads=3 / nr=0 / decimate=1 / mbaff=0 / bframes=3 / b_pyramid=0 / b_adapt=2 / b_bias=0 / direct=3 / wpredb=1 / keyint=250 / keyint_min=25 / scenecut=40 / rc=2pass / bitrate=4736 / ratetol=1.0 / qcomp=0.60 / qpmin=10 / qpmax=51 / qpstep=4 / cplxblur=20.0 / qblur=0.5 / vbv_maxrate=50000 / vbv_bufsize=50000 / ip_ratio=1.40 / pb_ratio=1.30 / aq=1:1.00
Язык : English

Аудио #1
Идентификатор : 2
Формат : AC-3
Формат/Информация : Audio Coding 3
Расширение режима : CM (complete main)
Идентификатор кодека : A_AC3
Продолжительность : 2 ч. 0 м.
Вид битрейта : Постоянный
Битрейт : 448 Кбит/сек
Каналы : 6 каналов
Расположение каналов : Front: L C R, Side: L R, LFE
Частота : 48,0 КГц
Битовая глубина : 16 бит
Метод сжатия : С потерями
Задержка видео : 2 мс.
Размер потока : 386 Мбайт (8%)
Заголовок : AC3 448 Kbps
Язык : English

Аудио #2
Идентификатор : 4
Формат : DTS
Формат/Информация : Digital Theater Systems
Идентификатор кодека : A_DTS
Продолжительность : 2 ч. 0 м.
Вид битрейта : Постоянный
Битрейт : 755 Кбит/сек
Каналы : 6 каналов
Расположение каналов : Front: L C R, Side: L R, LFE
Частота : 48,0 КГц
Битовая глубина : 24 бит
Метод сжатия : С потерями
Размер потока : 651 Мбайт (13%)
Заголовок : DTS 768 Kbps
Язык : Russian

Текст
Идентификатор : 3
Формат : UTF-8
Идентификатор кодека : S_TEXT/UTF8
Идентификатор кодека/Информация : UTF-8 Plain Text
Язык : English

Меню
00:00:00.000 : en:Chapter 1
00:03:51.333 : en:Chapter 2
00:06:30.666 : en:Chapter 3
00:09:49.166 : en:Chapter 4
00:14:58.499 : en:Chapter 5
00:16:51.032 : en:Chapter 6
00:20:56.165 : en:Chapter 7
00:23:14.832 : en:Chapter 8
00:26:17.998 : en:Chapter 9
00:30:10.865 : en:Chapter 10
00:38:24.865 : en:Chapter 11
00:41:21.998 : en:Chapter 12
00:48:14.998 : en:Chapter 13
00:50:19.164 : en:Chapter 14
00:54:24.531 : en:Chapter 15
00:59:34.365 : en:Chapter 16
01:02:24.165 : en:Chapter 17
01:06:53.999 : en:Chapter 18
01:12:45.332 : en:Chapter 19
01:15:59.199 : en:Chapter 20
01:23:46.033 : en:Chapter 21
01:24:47.833 : en:Chapter 22
01:27:29.833 : en:Chapter 23
01:35:15.999 : en:Chapter 24
01:39:50.332 : en:Chapter 25
01:42:25.498 : en:Chapter 26
01:50:31.498 : en:Chapter 27
01:53:18.865 : en:Chapter 28

   Похожие торренты   Торрент   Размер 
В этой теме нет новых непрочитанных сообщений. Красавица из трущоб / Trishna (2011) BDRip 720p от ivandubskoj

2 | 3

4.37 ГБ

В этой теме нет новых непрочитанных сообщений. Миллионер поневоле / Mr. Deeds (2002) BDRip-AVC от Plusnindimon | D

42 | 10

724.77 МБ

В этой теме нет новых непрочитанных сообщений. Bruce Dickinson - Tattooed Millionaire (1990) FLAC

26 | 3

291.02 МБ

В этой теме нет новых непрочитанных сообщений. Миллионер / Srimanthudu (2015) WEB-DLRip | Sub

8 | 18

1.46 ГБ

В этой теме нет новых непрочитанных сообщений. Святые из Бундока / Святые из трущоб / The Boondock Saints (1999) HDRip от MegaPeer | P

33 | 0

746.94 МБ

В этой теме нет новых непрочитанных сообщений. Святые из Бундока / Святые из трущоб / The Boondock Saints (1999) HDRip от MegaPeer | A

101 | 1

746.96 МБ

В этой теме нет новых непрочитанных сообщений. Качели (2008) BDRip 720p

16 | 2

3.7 ГБ




Вы не можете начинать темы
Вы не можете отвечать на сообщения
Вы не можете редактировать свои сообщения
Вы не можете удалять свои сообщения
Вы не можете добавлять вложения

Перейти:  
Контактная информация: rstracker[пёсик]yandex.ru
 Вход
ppkBB3cker v.2 © 2008-2014 @ PPK
[ Time : 0.035s | 15 Queries | GZIP : Off ]

cron