img image001 image001 image001 image001 image001 image001 image001 image001 image001 image001 image001 image001 image001 image001 image001

Planets Sun Sun Sun
Статистика раздачи
Автор: Снежана | Размер: 2.18 ГБ | Добавлен: 12 авг 2013
Раздают: 39    Качают: 7
Скачать торрент
Скачать торрент
Описание торрента

СообщениеДобавлено: 12 авг 2013 

«The story of Halo begins at dawn.»



#77
Страна: США / 343 Industries, Laskey Productions
Жанр: фантастика, боевик, триллер
Год выпуска: 2012
Продолжительность: 01:31:23

Перевод: Профессиональный (многоголосый, закадровый)
Оригинальная аудиодорожка: английский
Субтитры: русский, английский

Режиссер: Стюарт Хендлер / Stewart Hendler

В ролях: Анна Попплуэлл, Том Грин, Эниша Брюстер, Айелет Зурер, Масам Холден, Майк Допуд, Айэйн Белчер, Осрик Чау, Катерина Кателиева, Дэниэл Кадмор...

Описание: Эта история возвращает игроков к началу войны между людьми и Ковенантами и подводит к событиям, происходящим в игре Halo 4. В стенах военной академии Космического Командования Объединённых Наций (UNSC) группу курсантов знатного происхождения готовят стать следующим поколением солдат в надвигающейся войне между UNCS и повстанцами на колониальных планетах. Один из кадетов, Томас Ласки, ведет внутреннюю борьбу, преодолевая сомнения по поводу войны и опасения не оправдать высоких ожиданий командования. К тому моменту, как Ласки смирился со своей ролью будущего командира, ужасающее войско альянса Ковенант вторгается на планету и переворачивает привычный мир героя с ног на голову. Вдохновлённый подвигами Мастера Чифа, Ласки должен на собственном опыте узнать, что значит быть героем.






Исходник: BDRemux 1080p + DVD5 R5
Качество: BDRip-AVC
Формат: MKV

Видео: 1280x532 (2.40:1), 23.976 fps, H264 ~ 2305 kbps avg, 0.141 bit/pixel
Аудио 1: 48 kHz, АС3 6 ch, 448 kbps, русский
Аудио 2: 48 kHz, АС3 6 ch, 448 kbps, английский
Формат субтитров: SoftSub (srt)
Дополнительно: Фильм разбит на главы, как на оригинальном Blu-ray диске.
Предупреждение: В начале фильма (4 минуты) отсутствует перевод, поскольку на DVD5 R5 начала фильма, представленного в этом рипе - нет, нет также русских субтитров на этот промежуток времени.

Раздача от:
Общее
Полное имя : Halo.4.Idushii.k.rassvetu.2012.P.BDRip-AVC_[Youtracker]_by_avproh.mkv
Формат : Matroska
Версия формата : Version 4 / Version 2
Размер файла : 2,18 Гбайт
Продолжительность : 1 ч. 35 м.
Общий поток : 3266 Кбит/сек
Дата кодирования : UTC 2013-07-26 02:03:52
Программа кодирования : mkvmerge v6.1.0 ('Old Devil') built on Mar 2 2013 14:32:37
Библиотека кодирования : libebml v1.3.0 + libmatroska v1.4.0

Видео
Идентификатор : 1
Формат : AVC
Формат/Информация : Advanced Video Codec
Профиль формата : High@L4.1
Параметр CABAC формата : Да
Параметр ReFrames формата : 11 кадров
Идентификатор кодека : V_MPEG4/ISO/AVC
Продолжительность : 1 ч. 35 м.
Битрейт : 2305 Кбит/сек
Номинальный битрейт : 2517 Кбит/сек
Ширина : 1280 пикселей
Высота : 532 пикселя
Соотношение сторон : 2,40:1
Режим частоты кадров : Постоянный
Частота кадров : 23,976 кадра/сек
Цветовое пространство : YUV
Субдискретизация насыщенности : 4:2:0
Битовая глубина : 8 бит
Тип развёртки : Прогрессивная
Бит/(Пиксели*Кадры) : 0.141
Размер потока : 1,54 Гбайт (71%)
Библиотека кодирования : x264 core 130 r2273 b3065e6
Настройки программы : cabac=1 / ref=11 / deblock=1:-2:-1 / analyse=0x3:0x113 / me=umh / subme=9 / psy=1 / psy_rd=1.00:0.10 / mixed_ref=1 / me_range=32 / chroma_me=1 / trellis=2 / 8x8dct=1 / cqm=0 / deadzone=21,11 / fast_pskip=1 / chroma_qp_offset=-3 / threads=6 / lookahead_threads=1 / sliced_threads=0 / nr=0 / decimate=1 / interlaced=0 / bluray_compat=0 / constrained_intra=0 / bframes=10 / b_pyramid=2 / b_adapt=2 / b_bias=0 / direct=3 / weightb=1 / open_gop=0 / weightp=2 / keyint=240 / keyint_min=23 / scenecut=40 / intra_refresh=0 / rc_lookahead=80 / rc=2pass / mbtree=1 / bitrate=2517 / ratetol=1.0 / qcomp=0.60 / qpmin=0 / qpmax=69 / qpstep=4 / cplxblur=20.0 / qblur=0.5 / ip_ratio=1.40 / aq=2:0.90
Язык : English
Default : Да
Forced : Нет

Аудио #1
Идентификатор : 2
Формат : AC-3
Формат/Информация : Audio Coding 3
Расширение режима : CM (complete main)
Параметр Endianness формата : Big
Идентификатор кодека : A_AC3
Продолжительность : 1 ч. 35 м.
Вид битрейта : Постоянный
Битрейт : 448 Кбит/сек
Каналы : 6 каналов
Расположение каналов : Front: L C R, Side: L R, LFE
Частота : 48,0 КГц
Битовая глубина : 16 бит
Метод сжатия : С потерями
Размер потока : 306 Мбайт (14%)
Заголовок : MVO
Язык : Russian
Default : Да
Forced : Нет

Аудио #2
Идентификатор : 3
Формат : AC-3
Формат/Информация : Audio Coding 3
Расширение режима : CM (complete main)
Параметр Endianness формата : Big
Идентификатор кодека : A_AC3
Продолжительность : 1 ч. 35 м.
Вид битрейта : Постоянный
Битрейт : 448 Кбит/сек
Каналы : 6 каналов
Расположение каналов : Front: L C R, Side: L R, LFE
Частота : 48,0 КГц
Битовая глубина : 16 бит
Метод сжатия : С потерями
Размер потока : 306 Мбайт (14%)
Язык : English
Default : Нет
Forced : Нет

Текст #1
Идентификатор : 4
Формат : UTF-8
Идентификатор кодека : S_TEXT/UTF8
Идентификатор кодека/Информация : UTF-8 Plain Text
Язык : Russian
Default : Нет
Forced : Нет

Текст #2
Идентификатор : 5
Формат : UTF-8
Идентификатор кодека : S_TEXT/UTF8
Идентификатор кодека/Информация : UTF-8 Plain Text
Язык : English
Default : Нет
Forced : Нет

Меню
00:00:00.000 : en:00:00:00.000
00:04:14.546 : en:00:04:14.546
00:07:44.464 : en:00:07:44.464
00:08:31.928 : en:00:08:31.928
00:12:39.968 : en:00:12:39.968
00:16:24.692 : en:00:16:24.692
00:20:13.212 : en:00:20:13.212
00:25:52.968 : en:00:25:52.968
00:28:22.200 : en:00:28:22.200
00:31:57.207 : en:00:31:57.207
00:36:17.842 : en:00:36:17.842
00:40:53.868 : en:00:40:53.868
00:44:32.461 : en:00:44:32.461
00:46:29.495 : en:00:46:29.495
00:49:45.441 : en:00:49:45.441
00:53:58.402 : en:00:53:58.402
00:57:03.086 : en:00:57:03.086
01:03:23.133 : en:01:03:23.133
01:08:56.257 : en:01:08:56.257
01:12:07.156 : en:01:12:07.156
01:18:15.357 : en:01:18:15.357
01:24:02.079 : en:01:24:02.079





   Похожие торренты   Торрент   Размер 
В этой теме нет новых непрочитанных сообщений. Halo 4: Идущий к рассвету / Halo 4: Forward Unto Dawn (2012) BDRemux 1080p от Youtracker | P, L2 | Лицензия

23 | 13

18.33 ГБ

В этой теме нет новых непрочитанных сообщений. Halo 4: Идущий к рассвету / Halo 4: Forward Unto Dawn [01-05 из 05] (2012) WEB-DLRip 720p | L2

10 | 8

1.58 ГБ

В этой теме нет новых непрочитанных сообщений. Halo 4: Идущий к рассвету / Halo 4: Forward Unto Dawn (2012) HDRip-AVC от Stalker oK | L2

14 | 4

1.49 ГБ

В этой теме нет новых непрочитанных сообщений. Halo 4: Идущий к рассвету / Halo 4: Forward Unto Dawn (2012) BDRemux 1080p

0 | 3

16.66 ГБ

В этой теме нет новых непрочитанных сообщений. Halo 4: Идущий к рассвету / Halo 4: Forward Unto Dawn (2012) HDRip | L2

87 | 19

1.37 ГБ

В этой теме нет новых непрочитанных сообщений. Halo: Падение Предела / Halo: The Fall of Reach (2015) BDRip-AVC | P

920 | 35

1.38 ГБ

В этой теме нет новых непрочитанных сообщений. Halo: Сумерки / Halo: Nightfall [s01] (2014) BDRip-AVC от HELLYWOOD | P

348 | 19

2.18 ГБ




Вы не можете начинать темы
Вы не можете отвечать на сообщения
Вы не можете редактировать свои сообщения
Вы не можете удалять свои сообщения
Вы не можете добавлять вложения

Перейти:  
Для Мосгорсуда, Роскомнадзора и рекламодателей: mosgorsud-torrent[собачка]yandex.ru
 Вход
ppkBB3cker v.2 © 2008-2014 @ PPK
[ Time : 0.048s | 16 Queries | GZIP : Off ]

Торрент трекер RUTOR.IN, Не можете зайти на rutor.org? Какой новый адрес рутор? Какое зеркало рутор? Не работает rutor.org и зеркала? Тогда наш торрент специально для вас. Rutor.in неофициальное зеркало rutor. В случае если у Вас заблокирован rutor или вдруг Вы не можете на него зайти, то Вы без труда сможете скачать бесплатно и без рекламы последние новинки кино, игр, сериалов и прочего у нас, на Rutor.in. Не нужно использовать прокси, чтобы зайти на рутор, достаточно воспользоваться нашим ресурсом. Все новые фильмы, игры, сериалы, книги и музыка за 2013 и 2014 годы через торрент бесплатно. Скачивайте фильмы в хорошем качестве, игры для пк, xbox, playstation без регистрации. У нас вы найдете новые Зарубежные сериалы и Русские сериалы 2013, 2014, 2015 годов. Оставайтесь с нами, качайте любимые фильмы, игры, сериалы, книги и музыку.
cron