img image001 image001 image001 image001 image001 image001 image001 image001 image001 image001 image001 image001 image001 image001 image001

Planets Sun Sun Sun
Статистика раздачи
Автор: Снежана | Размер: 1.41 ГБ | Добавлен: 12 авг 2013
Раздают: 33    Качают: 2
Скачать торрент
Скачать торрент
Описание торрента

СообщениеДобавлено: 12 авг 2013 

#77

Информация о фильме
Название: Красные огни
Оригинальное название: Red Lights
Год выхода: 2011
Жанр: триллер, драма, детектив
Режиссер: Родриго Кортес
В ролях: Роберт Де Ниро, Сигурни Уивер, Киллиан Мёрфи, Элизабет Олсен, Тоби Джонс, Джоэли Ричардсон, Крэйг Робертс, Берн Горман, Карен Шенас-Дэвид, Жан Корнет

О фильме:
Ученые-скептики Маргарет Мэтисон и ее ассистент, Том Бакли, занимаются разоблачением шарлатанов. Изучение паранормального приводит их к столкновению с давним противником доктора Мэтисон — человеком по имени Сильвер.

Объявив о своем возвращении, Сильвер впервые за многие годы выступает перед широкой публикой. Знавшие экстрасенса люди не забыли, что незадолго до добровольного ухода Сильвера со сцены таинственной смертью погиб основной критик его деятельности.



Страна: Испания, США
Продолжительность: 01:53:51
Перевод: Профессиональный (дублированный)

Файл
Кодек: H.264
Качество: HDRip Исходник: BDRip 1080p
Видео: 640x362 (852х362 анаморф), ~2.35:1, 1500 Kbps, 23.976 fps
Звук:
Русская дорожка, AAC, 2 канала, 48.0 KHz, 128 Kbps, F L,R
Английская дорожка, AAC, 2 канала, 48.0 KHz, 128 Kbps, F L,R
Субтитры: Русские и Английские

Код:
Media Type: Movie
Sort Name:
XID: Apple:vendor_id:2012-tt1748179
Content ID: 547578277
ScreenWriters: Родриго Кортес
Producers: Родриго Кортес, Адриан Герра, Синди Кауэн
Director: Родриго Кортес
Cast: Роберт Де Ниро, Сигурни Уивер, Киллиан Мёрфи, Элизабет Олсен, Тоби Джонс, Джоэли Ричардсон, Крэйг Робертс, Берн Горман, Карен Шенас-Дэвид, Жан Корнет
Rating: R
Long Deion: Ученые-скептики Маргарет Мэтисон и ее ассистент, Том Бакли, занимаются разоблачением шарлатанов. Изучение паранормального приводит их к столкновению с давним противником доктора Мэтисон — человеком по имени Сильвер. Объявив о своем возвращении, Сильвер впервые за многие годы выступает перед широкой публикой. Знавшие экстрасенса люди не забыли, что незадолго до добровольного ухода Сильвера со сцены таинственной смертью погиб основной критик его деятельности.
Deion: Ученые-скептики Маргарет Мэтисон и ее ассистент, Том Бакли, занимаются разоблачением шарлатанов. Изучение паранормального приводит их к столкновению с давним противником доктора Мэтисон — человеком по имени Сильвер.
Release Date: 2012-01-20T07:00:00Z
Genre:  триллер, драма, детектив
Artist: Родриго Кортес
Name: Красные огни
Код:
General
Complete name                            : C:UsersNarekDesktopКрасные огни.mp4
Format                                   : MPEG-4
Format profile                           : Base Media
Codec ID                                 : isom
File size                                : 1.41 GiB
Duration                                 : 1h 53mn
Overall bit rate mode                    : Variable
Overall bit rate                         : 1 769 Kbps
Movie name                               : Красные огни
Performer                                : Родриго Кортес
Genre                                    :  триллер, драма, детектив
ContentType                              : Short Film
Deion                              : Ученые-скептики Маргарет Мэтисон и ее ассистент, Том Бакли, занимаются разоблачением шарлатанов. Изучение паранормального приводит их к столкновению с давним противником доктора Мэтисон — человеком по имени Сильвер.
Recorded date                            : UTC 2012-01-20 07:00:00
Encoded date                             : UTC 2013-07-30 18:49:45
Tagged date                              : UTC 2013-07-31 18:59:35
Cover                                    : Yes
LongDeion                          : Ученые-скептики Маргарет Мэтисон и ее ассистент, Том Бакли, занимаются разоблачением шарлатанов. Изучение паранормального приводит их к столкновению с давним противником доктора Мэтисон — человеком по имени Сильвер.  Объявив о своем возвращении, Сильвер впервые за многие годы выступает перед широкой публикой. Знавшие экстрасенса люди не забыли, что незадолго до добровольного ухода Сильвера со сцены таинственной смертью погиб основной критик его деятельности.
AppleStoreCatalogID                      : 547578277
Vendor                                   : Apple:vendor_id:2012-tt1748179
ContentRating                            : mpaa|R|400|

Video
ID                                       : 1
Format                                   : AVC
Format/Info                              : Advanced Video Codec
Format profile                           : Baseline@L3.0
Format settings, CABAC                   : No
Format settings, ReFrames                : 3 frames
Codec ID                                 : avc1
Codec ID/Info                            : Advanced Video Coding
Duration                                 : 1h 53mn
Bit rate                                 : 1 500 Kbps
Maximum bit rate                         : 7 307 Kbps
Width                                    : 640 pixels
Height                                   : 362 pixels
Display aspect ratio                     : 2.35:1
Original display aspect ratio            : 2.35:1
Frame rate mode                          : Variable
Frame rate                               : 23.976 fps
Minimum frame rate                       : 23.810 fps
Maximum frame rate                       : 24.390 fps
Color space                              : YUV
Chroma subsampling                       : 4:2:0
Bit depth                                : 8 bits
Scan type                                : Progressive
Bits/(Pixel*Frame)                       : 0.270
Stream size                              : 1.19 GiB (85%)
Writing library                          : x264 core 130 r2273 b3065e6
Encoding settings                        : cabac=0 / ref=3 / deblock=1:0:0 / analyse=0x1:0x111 / me=umh / subme=9 / psy=1 / psy_rd=1.00:0.00 / mixed_ref=1 / me_range=16 / chroma_me=1 / trellis=1 / 8x8dct=0 / cqm=0 / deadzone=21,11 / fast_pskip=1 / chroma_qp_offset=-2 / threads=6 / lookahead_threads=1 / sliced_threads=0 / nr=0 / decimate=1 / interlaced=0 / bluray_compat=0 / constrained_intra=0 / bframes=0 / weightp=0 / keyint=240 / keyint_min=24 / scenecut=40 / intra_refresh=0 / rc_lookahead=40 / rc=2pass / mbtree=1 / bitrate=1500 / ratetol=1.0 / qcomp=0.60 / qpmin=0 / qpmax=69 / qpstep=4 / cplxblur=20.0 / qblur=0.5 / vbv_maxrate=5000 / vbv_bufsize=5000 / nal_hrd=none / ip_ratio=1.40 / aq=1:1.00
Encoded date                             : UTC 2013-07-30 19:28:50
Tagged date                              : UTC 2013-07-30 18:50:53
Color primaries                          : BT.709
Transfer characteristics                 : BT.709
Matrix coefficients                      : BT.709

Audio #1
ID                                       : 2
Format                                   : AAC
Format/Info                              : Advanced Audio Codec
Format profile                           : LC
Codec ID                                 : 40
Duration                                 : 1h 53mn
Bit rate mode                            : Variable
Bit rate                                 : 128 Kbps
Maximum bit rate                         : 263 Kbps
Channel(s)                               : 2 channels
Channel positions                        : Front: L R
Sampling rate                            : 48.0 KHz
Compression mode                         : Lossy
Stream size                              : 104 MiB (7%)
Language                                 : Russian
Encoded date                             : UTC 2013-07-30 18:50:47
Tagged date                              : UTC 2013-07-30 18:50:53

Audio #2
ID                                       : 3
Format                                   : AAC
Format/Info                              : Advanced Audio Codec
Format profile                           : LC
Codec ID                                 : 40
Duration                                 : 1h 53mn
Bit rate mode                            : Variable
Bit rate                                 : 128 Kbps
Maximum bit rate                         : 164 Kbps
Channel(s)                               : 2 channels
Channel positions                        : Front: L R
Sampling rate                            : 48.0 KHz
Compression mode                         : Lossy
Stream size                              : 104 MiB (7%)
Language                                 : English
Encoded date                             : UTC 2013-07-30 18:50:50
Tagged date                              : UTC 2013-07-30 18:50:53

Text #1
ID                                       : 4
Format                                   : Timed Text
Muxing mode                              : sbtl
Codec ID                                 : tx3g
Duration                                 : 1h 48mn
Bit rate mode                            : Variable
Bit rate                                 : 123 bps
Stream size                              : 97.0 KiB (0%)
Language                                 : Russian
Encoded date                             : UTC 2013-07-30 18:50:53
Tagged date                              : UTC 2013-07-30 18:50:53

Text #2
ID                                       : 5
Format                                   : Timed Text
Muxing mode                              : sbtl
Codec ID                                 : tx3g
Duration                                 : 1h 48mn
Bit rate mode                            : Variable
Bit rate                                 : 78 bps
Stream size                              : 61.7 KiB (0%)
Language                                 : English
Encoded date                             : UTC 2013-07-30 18:50:53
Tagged date                              : UTC 2013-07-30 18:50:53

Menu
ID                                       : 6
Codec ID                                 : text
Duration                                 : 1h 53mn
Encoded date                             : UTC 2013-07-31 18:59:35
Tagged date                              : UTC 2013-07-31 18:59:35
Bit rate mode                            : VBR
Duration_LastFrame                       : -368177
Код:
x264 [info]: frame I:3756  Avg QP:12.39  size: 28504  PSNR Mean Y:50.70 U:54.81 V:54.31 Avg:51.56 Global:50.77
x264 [info]: frame P:160044 Avg QP:14.63  size:  7333  PSNR Mean Y:48.45 U:52.46 V:51.75 Avg:49.31 Global:48.64
x264 [info]: mb I  I16..4: 30.2%  0.0% 69.8%
x264 [info]: mb P  I16..4:  1.4%  0.0%  2.3%  P16..4: 39.1% 24.7% 11.0%  0.0%  0.0%    skip:21.5%
x264 [info]: coded y,uvDC,uvAC intra: 73.4% 78.3% 66.2% inter: 29.5% 24.7% 7.5%
x264 [info]: i16 v,h,dc,p: 60% 12% 10% 18%
x264 [info]: i4 v,h,dc,ddl,ddr,vr,hd,vl,hu: 13%  6%  8% 12% 15% 15% 11% 12%  8%
x264 [info]: i8c dc,h,v,p: 56% 13% 23%  8%
x264 [info]: ref P L0: 69.0% 18.6% 12.4%
x264 [info]: SSIM Mean Y:0.9907078 (20.319db)
x264 [info]: PSNR Mean Y:48.502 U:52.515 V:51.812 Avg:49.364 Global:48.681 kb/s:1499.67




   Похожие торренты   Торрент   Размер 
В этой теме нет новых непрочитанных сообщений. Красные огни / Red Lights (2012) HDRip-AVC | Лицензия

25 | 3

745.76 МБ

В этой теме нет новых непрочитанных сообщений. Красные огни / Red Lights (2012) HDRip | КПК от Generalfilm | Лицензия

13 | 2

391.4 МБ

В этой теме нет новых непрочитанных сообщений. Красные огни / Red Lights (2012) HDRip от Scarabey | Лицензия

40 | 8

742.78 МБ

В этой теме нет новых непрочитанных сообщений. Красные огни / Red Lights (2012) HDRip от Scarabey | Лицензия

155 | 3

1.45 ГБ

В этой теме нет новых непрочитанных сообщений. OST - Красные огни / Red Lights [Victor Reyes] (2012) MP3

1 | 2

121.83 МБ

В этой теме нет новых непрочитанных сообщений. Красные огни / Red Lights (2012) BDRip-AVC | iPad

35 | 3

1.24 ГБ

В этой теме нет новых непрочитанных сообщений. Красные огни / Red Lights (2012) BDRip-AVC от Rulya74

142 | 4

1.45 ГБ




Вы не можете начинать темы
Вы не можете отвечать на сообщения
Вы не можете редактировать свои сообщения
Вы не можете удалять свои сообщения
Вы не можете добавлять вложения

Перейти:  
Для Мосгорсуда, Роскомнадзора и рекламодателей: mosgorsud-torrent[собачка]yandex.ru
 Вход
ppkBB3cker v.2 © 2008-2014 @ PPK
[ Time : 0.055s | 18 Queries | GZIP : Off ]

cron