img image001 image001 image001 image001 image001 image001 image001 image001 image001 image001 image001 image001 image001 image001 image001 image001

Planets Sun Sun Sun
Статистика раздачи
Автор: Снежана | Размер: 4.02 ГБ | Добавлен: 12 авг 2013
Раздают: 0    Качают: 2
Скачать торрент
Скачать торрент
Описание торрента

СообщениеДобавлено: 12 авг 2013 

#77

Орден Чёрного Орла / Закон Чёрного Орла / The Order of the Black Eagle

Страна: США
Жанр: боевик
Год выпуска: 1987
Продолжительность: 01:29:36
Перевод: Профессиональный (двухголосый закадровый) НТВ+
Cубтитры: нет

Режиссер: Уорт Китер / Worth Keeter

В ролях:
Йен Хантер, С.К. Бибби, Уильям Т. Хикс, Anna Rapagna. Джилл Доннеллан, Shangtai Tuan, Джин Шерер. Вольфганг Линкман, Фло Химэн, Дин Витуорт и другие

Описание:
Специальным агентам спецслужб поручают проникнуть в логово Чёрного Орла, нацистко-террористической организации, и уничтожить эту мировую угрозу. Очередная бондиада.



Качество: TVRip
Формат: MPEG-PS
Видео: MPEG2 Video, 720x576 (4:3) 25.00fps, ~6144 Kbps, 0.593 bit/pixel
Аудио: MP2, 48000Hz, 2/0 (L,R) ch, 192 Kbps
Семпл

Автор: Valeronius
Формат : MPEG-PS
Размер файла : 4,02 Гбайт
Продолжительность : 1 ч. 29 м.
Общий поток : 6422 Кбит/сек

Видео
Идентификатор : 224 (0xE0)
Формат : MPEG Video
Версия формата : Version 2
Профиль формата : Main@Main
Параметр BVOP формата : Да
Параметр матрицы формата : По умолчанию
Параметр GOP формата : M=3, N=15
Продолжительность : 1 ч. 29 м.
Вид битрейта : Переменный
Битрейт : 6144 Кбит/сек
Ширина : 720 пикселей
Высота : 576 пикселей
Соотношение сторон : 4:3
Частота кадров : 25,000 кадров/сек
Стандарт вещания : PAL
Цветовое пространство : YUV
Субдискретизация насыщенности : 4:2:0
Битовая глубина : 8 бит
Тип развёртки : Прогрессивная
Метод сжатия : С потерями
Бит/(Пиксели*Кадры) : 0.593
Размер потока : 3,82 Гбайт (95%)

Аудио
Идентификатор : 192 (0xC0)
Формат : MPEG Audio
Версия формата : Version 1
Профиль формата : Layer 2
Продолжительность : 1 ч. 29 м.
Вид битрейта : Постоянный
Битрейт : 192 Кбит/сек
Каналы : 2 канала
Частота : 48,0 КГц
Метод сжатия : С потерями
Размер потока : 123 Мбайт (3%)



   Похожие торренты   Торрент   Размер 
В этой теме нет новых непрочитанных сообщений. Орден Чёрного Орла / Закон Чёрного Орла / The Order of the Black Eagle (1987) SATRip | НТВ+

0 | 4

1.44 ГБ

В этой теме нет новых непрочитанных сообщений. Змея в тени орла / Тень орла / Se ying diu sau / Snake in the Eagle's Shadow (1978) DVDRip

7 | 2

1.23 ГБ

В этой теме нет новых непрочитанных сообщений. Когти орла / Talons Of The Eagle (1992) VHSRip

0 | 59

797.73 МБ

В этой теме нет новых непрочитанных сообщений. Ночь орла / Night of the Eagle (1962) BDRip-AVC by msltel

25 | 4

2.02 ГБ

В этой теме нет новых непрочитанных сообщений. Крыло Орла / Eagle's Wing (1979) DVDRip от brazolargo

3 | 3

1.36 ГБ

В этой теме нет новых непрочитанных сообщений. Когти орла / Talons of the Eagle (1992) DVDRip от NovaLan

6 | 17

1.48 ГБ

В этой теме нет новых непрочитанных сообщений. Ночь орла / Night of the Eagle (1962) BDRip 1080p by msltel

8 | 2

7.76 ГБ




Вы не можете начинать темы
Вы не можете отвечать на сообщения
Вы не можете редактировать свои сообщения
Вы не можете удалять свои сообщения
Вы не можете добавлять вложения

Перейти:  
 Вход
ppkBB3cker v.2 © 2008-2014 @ PPK
[ Time : 0.045s | 18 Queries | GZIP : Off ]

cron