img image001 image001 image001 image001 image001 image001 image001 image001 image001 image001 image001 image001 image001 image001 image001 image001

Planets Sun Sun Sun
Статистика раздачи
Автор: PriZraK | Размер: 1.56 ГБ | Добавлен: 02 окт 2013
Раздают: 28    Качают: 2
Скачать торрент
Скачать торрент
Описание торрента

СообщениеДобавлено: 02 окт 2013 

#77


Информация о фильме
Название: Транс
Оригинальное название: Trance
Год выхода: 2013
Жанр: триллер, драма
Режиссер: Дэнни Бойл
В ролях: Джеймс МакЭвой, Венсан Кассель, Розарио Доусон, Дэнни Сапани, Мэттью Кросс, Вахаб Ахмед Шейх, Марк Полтимор, Таппенс Мидлтон, Саймон Кунц, Майкл Шэйффер

О фильме:
Аукционер Саймон не в силах противостоять искушению — вступает в сговор с бандой грабителей и организует похищение уникального лота стоимостью в миллионы долларов. Однако налет оканчивается не совсем так, как он предполагал вначале. Аукционера оглушают ударом тупого предмета по голове, в результате которого он теряет какие бы то ни было воспоминания о том, что произошло.
Разумеется, он также забывает, куда спрятал ценную картину. Пытками добиться ответа от ничего не понимающего Саймона не удается. Тогда главарь банды решает нанять психотерапевта, чтобы она смогла выудить ценную информацию из поврежденного мозга заложника. По мере того, как девушка пробивается сквозь нейронную защиту, ставки растут как на дрожжах. Границы между страстью и жестокостью, реальностью и вымыслом тускнеют и вовсе готовы испариться. В конечном итоге становится не ясно — кто же у кого в заложниках?


Выпущено: Великобритания, Франция
Продолжительность: 01:41:19
Перевод: Профессиональный (полное дублирование) | Лицензия

Файл
Качество: BDRip-AVC (576p) | iPad
Формат: MP4 (контейнер m4v)
Видео: AVC, 1024x426 (2.40:1) at 23.976 fps, AVC at 2034 kbps avg, 0.194 bit/pixel
Аудио: AAC LC, 2 ch, 48 кГц, VBR ~153 kbps - Русский
Субтитры: Английские (полные, SDH).

Автор рипа:

General
Complete name : C:torrentsTrance.2013.iPad.AAC.x264-LEONARDO.m4v
Format : MPEG-4
Codec ID : M4V
File size : 1.56 GiB
Duration : 1h 41mn
Overall bit rate mode : Variable
Overall bit rate : 2 199 Kbps
Movie name : Транс / Trance
Performer : Дэнни Бойл
Genre : триллер, драма
Recorded date : UTC 2013-03-27 07:00:00
Encoded date : UTC 2013-08-12 19:47:27
Tagged date : UTC 2013-08-12 19:51:14
Cover : Yes
desc : Аукционер Саймон не в силах противостоять искушению — вступает в сговор с бандой грабителей и организует похищение уникального лота стоимостью в миллионы долларов. Однако налет оканчивается не совсем так, как он предполагал вначале. Аукционера оглушают ударом тупого предмета по голове, в результате которого он теряет какие бы то ни было воспоминания о том, что произошло.
ldes : Аукционер Саймон не в силах противостоять искушению — вступает в сговор с бандой грабителей и организует похищение уникального лота стоимостью в миллионы долларов. Однако налет оканчивается не совсем так, как он предполагал вначале. Аукционера оглушают ударом тупого предмета по голове, в результате которого он теряет какие бы то ни было воспоминания о том, что произошло.
hdvd : 1
stik : 9
rtng : 0
akID : -1
sfID : 0
cnID : 668239642
xid : Apple:vendor_id:2013-586399
iTunEXTC : mpaa|R|400|
iTunMOVI : (эту часть пришлось вырезать, т.к. фильтр не пускает тег "стринг"...)

Video
ID : 1
Format : AVC
Format/Info : Advanced Video Codec
Format profile : High@L3.1
Format settings, CABAC : Yes
Format settings, ReFrames : 8 frames
Codec ID : avc1
Codec ID/Info : Advanced Video Coding
Duration : 1h 41mn
Bit rate : 2 034 Kbps
Maximum bit rate : 13.1 Mbps
Width : 1 024 pixels
Height : 426 pixels
Display aspect ratio : 2.40:1
Frame rate mode : Constant
Frame rate : 23.976 fps
Color space : YUV
Chroma subsampling : 4:2:0
Bit depth : 8 bits
Scan type : Progressive
Bits/(Pixel*Frame) : 0.194
Stream size : 1.44 GiB (92%)
Writing library : x264 core 125 r2208 d9d2288
Encoding settings : cabac=1 / ref=8 / deblock=1:-3:-3 / analyse=0x3:0x133 / me=umh / subme=10 / psy=1 / psy_rd=0.95:0.05 / mixed_ref=1 / me_range=24 / chroma_me=1 / trellis=2 / 8x8dct=1 / cqm=0 / deadzone=21,11 / fast_pskip=0 / chroma_qp_offset=-3 / threads=12 / lookahead_threads=2 / sliced_threads=0 / nr=0 / decimate=1 / interlaced=0 / bluray_compat=0 / constrained_intra=0 / bframes=5 / b_pyramid=2 / b_adapt=2 / b_bias=0 / direct=1 / weightb=1 / open_gop=0 / weightp=2 / keyint=250 / keyint_min=23 / scenecut=40 / intra_refresh=0 / rc=crf / mbtree=0 / crf=17.8 / qcomp=0.60 / qpmin=0 / qpmax=69 / qpstep=4 / ip_ratio=1.40 / pb_ratio=1.30 / aq=2:1.00
Language : English
Encoded date : UTC 2013-08-12 19:47:27
Tagged date : UTC 2013-08-12 19:49:01

Audio
ID : 2
Format : AAC
Format/Info : Advanced Audio Codec
Format profile : LC
Codec ID : 40
Duration : 1h 41mn
Bit rate mode : Variable
Bit rate : 153 Kbps
Maximum bit rate : 225 Kbps
Channel(s) : 2 channels
Channel positions : Front: L R
Sampling rate : 48.0 KHz
Compression mode : Lossy
Stream size : 111 MiB (7%)
Language : English
Encoded date : UTC 2013-08-12 19:44:47
Tagged date : UTC 2013-08-12 19:49:01

Text #1
ID : 3
Format : Timed Text
Muxing mode : sbtl
Codec ID : tx3g
Duration : 1h 35mn
Bit rate mode : Variable
Bit rate : 64 bps
Stream size : 44.7 KiB (0%)
Language : English
Encoded date : UTC 2013-08-12 19:49:01
Tagged date : UTC 2013-08-12 19:49:01

Text #2
ID : 4
Format : Timed Text
Muxing mode : sbtl
Codec ID : tx3g
Duration : 1h 35mn
Bit rate mode : Variable
Bit rate : 70 bps
Stream size : 49.2 KiB (0%)
Title : SDH
Language : English
Encoded date : UTC 2013-08-12 19:49:01
Tagged date : UTC 2013-08-12 19:49:01










   Похожие торренты   Торрент   Размер 
В этой теме нет новых непрочитанных сообщений. Транс / Trance (2013) HDRip от Sanjar & NeoJet | КПК | Лицензия

8 | 13

304.98 МБ

В этой теме нет новых непрочитанных сообщений. Транс / Trance (2013) BDRip-AVC от NNNB | A

101 | 10

1.46 ГБ

В этой теме нет новых непрочитанных сообщений. Транс / Trance (2013) BDRip 720p от NNNB | D, A

40 | 5

5.74 ГБ

В этой теме нет новых непрочитанных сообщений. Элизиум: Рай не на Земле / Elysium (2013) BDRip-AVC от leonardo 59 & Scarabey | Лицензия | iPad

14 | 9

1.81 ГБ

В этой теме нет новых непрочитанных сообщений. Транс / Trance (2013) HDRip-AVC | D

10 | 0

741.5 МБ

В этой теме нет новых непрочитанных сообщений. Макс / Max (2015) BDRip 720p от Leonardo | iPad | Лицензия

115 | 13

3.46 ГБ

В этой теме нет новых непрочитанных сообщений. Ровер / The Rover (2014) BDRip 720p от Leonardo | Лицензия | iPad

50 | 5

2.44 ГБ




Вы не можете начинать темы
Вы не можете отвечать на сообщения
Вы не можете редактировать свои сообщения
Вы не можете удалять свои сообщения
Вы не можете добавлять вложения

Перейти:  
 Вход
ppkBB3cker v.2 © 2008-2014 @ PPK
[ Time : 0.045s | 15 Queries | GZIP : Off ]

cron