img image001 image001 image001 image001 image001 image001 image001 image001 image001 image001 image001 image001 image001 image001 image001

Planets Sun Sun Sun
Статистика раздачи
Автор: PriZraK | Размер: 4 ГБ | Добавлен: 02 окт 2013
Раздают: 57    Качают: 7
Скачать торрент
Скачать торрент
Описание торрента

СообщениеДобавлено: 02 окт 2013 

#77


Информация о фильме
Название: Темный рыцарь
Оригинальное название: The Dark Knight
Год выхода: 2008
Жанр: триллер, драма, детектив, боевик
Режиссер: Кристофер Нолан / Christopher Nolan
В ролях: Кристиан Бэйл, Гэри Олдман, Аарон Экхарт, Майкл Кейн, Хит Леджер, Мэгги Джилленхаал, Морган Фримэн, Киллиан Мерфи

О фильме:
Бэтмен поднимает ставки в войне с криминалом. С помощью лейтенанта Джима Гордона и прокурора Харви Дента он намерен очистить улицы от преступности, отравляющей город. Сотрудничество оказывается эффективным, но скоро они обнаружат себя посреди хаоса, развязанного восходящим криминальным гением, известным испуганным горожанам под именем Джокер.


Выпущено: США
Продолжительность: 2:32:13
Перевод: Профессиональный (полное дублирование)

Файл
Качество: BDRip 720p | iPad
Формат: MP4 (контейнер m4v)
Видео: 1280x720, 23.976 fps, x264, 3436 kbit/s
Аудио №1: Русский - AAC-LC 2.0, 48 KHz, 160 kbps [Dub BD-CEE]
Аудио №2: Английский - AAC-LC 2.0, 48 KHz, 160 kbps [Original]
Субтитры: Russian, Russian BD-CEE, English
Дополнительно: Сохранены оригинальные чаптеры как на Blu-ray.

Автор рипа:

General
Complete name : C:torrentsThe Dark Knight.m4v
Format : MPEG-4
Codec ID : M4V
File size : 4.00 GiB
Duration : 2h 32mn
Overall bit rate mode : Variable
Overall bit rate : 3 762 Kbps
Movie name : The Dark Knight
Performer : Christopher Nolan
Genre : Action & Adventure
Recorded date : 2008-07-18T07:00:00Z
Encoded date : UTC 2011-10-22 09:29:30
Tagged date : UTC 2011-10-23 09:36:04
Writing application : MkvToMp4 [www.mkvtomp4.ru] version 0.216 Test
Cover : Yes
desc : Бэтмен поднимает ставки в войне с криминалом. С помощью лейтенанта Джима Гордона и прокурора Харви Дента он намерен очистить улицы от преступности, отравляющей город.
ldes : Бэтмен поднимает ставки в войне с криминалом. С помощью лейтенанта Джима Гордона и прокурора Харви Дента он намерен очистить улицы от преступности, отравляющей город.
hdvd : 1
stik : 9
cnID : 290567624
xid : RG-Apple:vendor_id:2008-111543
iTunEXTC : mpaa|PG-13|300|
iTunMOVI : (эту часть пришлось вырезать, т.к. фильтр не пускает тег "стринг"...)

Video
ID : 1
Format : AVC
Format/Info : Advanced Video Codec
Format profile : High@L4.1
Format settings, CABAC : Yes
Format settings, ReFrames : 9 frames
Codec ID : avc1
Codec ID/Info : Advanced Video Coding
Duration : 2h 32mn
Bit rate : 3 436 Kbps
Maximum bit rate : 16.9 Mbps
Width : 1 280 pixels
Height : 720 pixels
Display aspect ratio : 16:9
Frame rate mode : Constant
Frame rate : 23.976 fps
Color space : YUV
Chroma subsampling : 4:2:0
Bit depth : 8 bits
Scan type : Progressive
Bits/(Pixel*Frame) : 0.155
Stream size : 3.65 GiB (91%)
Title : The Dark Knight
Writing library : x264 core 84 r1416kGIT fcf70c2
Encoding settings : cabac=1 / ref=9 / deblock=1:-2:-2 / analyse=0x3:0x133 / me=umh / subme=9 / psy=1 / psy_rd=1.2:0.0 / mixed_ref=1 / me_range=64 / chroma_me=1 / trellis=2 / 8x8dct=1 / cqm=0 / deadzone=21,11 / fast_pskip=0 / chroma_qp_offset=-2 / threads=9 / sliced_threads=0 / nr=0 / decimate=1 / mbaff=0 / constrained_intra=0 / bframes=16 / b_pyramid=2 / b_adapt=2 / b_bias=0 / direct=1 / wpredb=1 / wpredp=2 / keyint=250 / keyint_min=25 / scenecut=40 / intra_refresh=0 / rc_lookahead=60 / rc=crf / mbtree=0 / crf=20.0 / qcomp=0.60 / qpmin=10 / qpmax=51 / qpstep=4 / vbv_maxrate=50000 / vbv_bufsize=50000 / ip_ratio=1.40 / pb_ratio=1.30 / aq=1:1.20
Language : English
Encoded date : UTC 2011-10-22 09:29:30
Tagged date : UTC 2011-10-22 09:32:40

Audio #1
ID : 2
Format : AAC
Format/Info : Advanced Audio Codec
Format profile : LC
Codec ID : 40
Duration : 2h 32mn
Bit rate mode : Variable
Bit rate : 160 Kbps
Maximum bit rate : 246 Kbps
Channel(s) : 2 channels
Channel positions : Front: L R
Sampling rate : 48.0 KHz
Compression mode : Lossy
Stream size : 175 MiB (4%)
Title : Russian
Language : Russian
Encoded date : UTC 2011-10-22 09:32:20
Tagged date : UTC 2011-10-22 09:32:40

Audio #2
ID : 3
Format : AAC
Format/Info : Advanced Audio Codec
Format profile : LC
Codec ID : 40
Duration : 2h 32mn
Bit rate mode : Variable
Bit rate : 160 Kbps
Maximum bit rate : 245 Kbps
Channel(s) : 2 channels
Channel positions : Front: L R
Sampling rate : 48.0 KHz
Compression mode : Lossy
Stream size : 174 MiB (4%)
Title : English
Language : English
Encoded date : UTC 2011-10-22 09:32:30
Tagged date : UTC 2011-10-22 09:32:40

Text #1
ID : 4
Format : Timed Text
Muxing mode : sbtl
Codec ID : tx3g
Duration : 2h 26mn
Bit rate mode : Variable
Bit rate : 104 bps
Stream size : 112 KiB (0%)
Language : Russian
Encoded date : UTC 2011-10-22 09:32:39
Tagged date : UTC 2011-10-22 09:32:40

Text #2
ID : 5
Format : Timed Text
Muxing mode : sbtl
Codec ID : tx3g
Duration : 2h 32mn
Bit rate mode : Variable
Bit rate : 100 bps
Stream size : 112 KiB (0%)
Title : BD CEE
Language : Russian
Encoded date : UTC 2011-10-22 09:32:39
Tagged date : UTC 2011-10-22 09:32:40

Text #3
ID : 6
Format : Timed Text
Muxing mode : sbtl
Codec ID : tx3g
Duration : 2h 24mn
Bit rate mode : Variable
Bit rate : 75 bps
Stream size : 79.5 KiB (0%)
Language : English
Encoded date : UTC 2011-10-22 09:32:39
Tagged date : UTC 2011-10-22 09:32:40

Menu
ID : 7
Codec ID : text
Duration : 2h 32mn
Encoded date : UTC 2011-10-23 09:35:49
Tagged date : UTC 2011-10-23 09:35:49
Bit rate mode : VBR










   Похожие торренты   Торрент   Размер 
В этой теме нет новых непрочитанных сообщений. Темный рыцарь: Возрождение легенды / The Dark Knight Rises (2012) BDRip-AVC от leonardo 59 | IMAX | iPad

18 | 5

2.37 ГБ

В этой теме нет новых непрочитанных сообщений. Темный рыцарь / The Dark Knight (2008) BDRip 720p от DHT-Movies

64 | 13

4.37 ГБ

В этой теме нет новых непрочитанных сообщений. Темный рыцарь / The Dark Knight (2008) BDRip 720p от FreeHD

37 | 5

8.34 ГБ

В этой теме нет новых непрочитанных сообщений. Темный рыцарь: Возрождение легенды / The Dark Knight Rises (2012) BDRip 720p от leonardo 59 | IMAX | Лицензия

233 | 13

4.01 ГБ

В этой теме нет новых непрочитанных сообщений. Темный Рыцарь / The Dark Knight (2008) BDRip-720p | Дополнительные материалы

24 | 11

5.33 ГБ

В этой теме нет новых непрочитанных сообщений. Темный рыцарь / The Dark Knight (2008) BDRip 720p от NNNB | IMAX | D,P,A

188 | 24

11.53 ГБ

В этой теме нет новых непрочитанных сообщений. Темный рыцарь / The Dark Knight (2008) BDRip 720p от HQ-ViDEO | IMAX

54 | 13

9.08 ГБ




Вы не можете начинать темы
Вы не можете отвечать на сообщения
Вы не можете редактировать свои сообщения
Вы не можете удалять свои сообщения
Вы не можете добавлять вложения

Перейти:  
Для Мосгорсуда, Роскомнадзора и рекламодателей: mosgorsud-torrent[собачка]yandex.ru
 Вход
ppkBB3cker v.2 © 2008-2014 @ PPK
[ Time : 0.058s | 17 Queries | GZIP : Off ]

cron