img image001 image001 image001 image001 image001 image001 image001 image001 image001 image001 image001 image001 image001 image001 image001

Planets Sun Sun Sun
Статистика раздачи
Автор: PriZraK | Размер: 4.93 ГБ | Добавлен: 02 окт 2013
Раздают: 43    Качают: 11
Скачать торрент
Скачать торрент
Описание торрента

СообщениеДобавлено: 02 окт 2013 

#77


Информация о фильме
Название: Джек Ричер
Оригинальное название: Jack Reacher
Год выхода: 2012
Жанр: боевик, триллер, криминал, детектив
Режиссер: Кристофер МакКуорри
В ролях: Том Круз, Розамунд Пайк, Ричард Дженкинс, Вернер Херцог, Дэвид Ойелоуо, Роберт Дювалл, Джей Кортни, Владимир Сизов, Джозеф Сикора, Майкл Рэймонд-Джеймс, Алексия Фаст, Владимир Сизов, Джош Хелман, Джеймс Мартин Келли, Дилан Кассман, Денвер Милорд, Сьюзэн Анджело, Джулия Йоркс, Николь Скотт, Делайла Пикарт, Джо Койл, Алисия Мартон, Питер Гэннон, Дэвид Уэйлен, Тристан Элма

О фильме:
Джек Ричер, секретный агент спецслужб, скрывающийся от всех, добровольно возвращается на службу. Его интересует судьба заключенного, совершившего убийство пяти человек. Ричер не верит в виновность этого человека, поскольку и сам участвовал в программе подготовки элитных киллеров специального назначения. Адвокат, занявшийся этим делом, с помощью Ричера узнает, что в этом деле замешаны спецслужбы. Вскоре адвоката похищают, а Ричеру выставляют ультиматум: либо он прекращает расследование, либо адвоката будет убит. Ему не остается ничего иного, кроме как вспомнить все то, чему его учили…


Страна: США
Студия: Paramount Pictures, Mutual Film Corporation, Skydance Productions, TC Productions
Продолжительность: 02:10:24
Перевод: Дублированный, авторский (одноголосый закадровый)

Файл
Кодек: h.264
Качество: BDRip-AVC
Видео: 2335 Кбит/с, 1024x436, 23.976 кадр/с

Звук:
• №1: Русский (AC3, 6 ch, 384 Кбит/с) Дублированный
• №2: Русский (AC3, 6 ch, 384 Кбит/с) Авторский одноголосый [Юрий Сербин]
• №3: Английский (AC3, 6 ch, 384 Кбит/с)
Отдельно:
• №4: Русский (AC3, 6 ch, 384 Кбит/с) Авторский одноголосый [Юрий Немахов]
• №5: Русский (AC3, 6 ch, 384 Кбит/с) Авторский одноголосый [Леонид Володарский]
• №6: Русский (AC3, 6 ch, 384 Кбит/с) Авторский одноголосый [Василий Горчаков]
• №7: Русский (AC3, 6 ch, 384 Кбит/с) Авторский одноголосый [Юрий Живов]
• №8: Украинский (AC3, 6 ch, 384 Кбит/с) Дублированный

Субтитры:
• №1: Русские [полные]
• №2: Украинские [полные]
• №3: Английские [полные]
• №4: Английские [SDH]
• №5: Английские [SDH, цветные]

Полное имя : Jack.Reacher.2012.x264.BDRip.(AVC).0ptimus.mkv
Формат : Matroska
Версия формата : Version 4 / Version 2
Размер файла : 3,18 Гбайт
Продолжительность : 2 ч. 10 м.
Общий поток : 3489 Кбит/сек
Название фильма : Джек Ричер | Jack Reacher [2012] -=BDRip (AVC) by 0ptimus=-
Дата кодирования : UTC 2013-08-03 02:49:00
Программа кодирования : mkvmerge v6.1.0 ('Old Devil') built on Mar 2 2013 14:32:37
Библиотека кодирования : libebml v1.3.0 + libmatroska v1.4.0

Видео
Идентификатор : 1
Формат : AVC
Формат/Информация : Advanced Video Codec
Профиль формата : High@L4.1
Параметр CABAC формата : Да
Параметр ReFrames формата : 11 кадров
Идентификатор кодека : V_MPEG4/ISO/AVC
Продолжительность : 2 ч. 10 м.
Битрейт : 2335 Кбит/сек
Ширина : 1024 пикселя
Высота : 436 пикселей
Соотношение сторон : 2,35:1
Частота кадров : 23,976 кадра/сек
Цветовое пространство : YUV
Субдискретизация насыщенности : 4:2:0
Битовая глубина : 8 бит
Тип развёртки : Прогрессивная
Бит/(Пиксели*Кадры) : 0.218
Размер потока : 2,07 Гбайт (65%)
Заголовок : Rip by 0ptimus
Библиотека кодирования : x264 core 133 r2334 a3ac64b
Настройки программы : cabac=1 / ref=11 / deblock=1:-3:-3 / analyse=0x3:0x113 / me=umh / subme=11 / psy=1 / psy_rd=1.00:0.20 / mixed_ref=1 / me_range=32 / chroma_me=1 / trellis=2 / 8x8dct=1 / cqm=0 / deadzone=21,11 / fast_pskip=0 / chroma_qp_offset=-3 / threads=4 / lookahead_threads=1 / sliced_threads=0 / nr=0 / decimate=0 / interlaced=0 / bluray_compat=0 / constrained_intra=0 / bframes=9 / b_pyramid=2 / b_adapt=2 / b_bias=0 / direct=3 / weightb=1 / open_gop=0 / weightp=2 / keyint=240 / keyint_min=23 / scenecut=40 / intra_refresh=0 / rc_lookahead=40 / rc=2pass / mbtree=0 / bitrate=2335 / ratetol=1.0 / qcomp=0.60 / qpmin=0 / qpmax=69 / qpstep=4 / cplxblur=20.0 / qblur=0.5 / vbv_maxrate=50000 / vbv_bufsize=50000 / nal_hrd=none / ip_ratio=1.40 / pb_ratio=1.30 / aq=1:1.00
Язык : English

Аудио #1
Идентификатор : 2
Формат : AC-3
Формат/Информация : Audio Coding 3
Расширение режима : CM (complete main)
Идентификатор кодека : A_AC3
Продолжительность : 2 ч. 10 м.
Вид битрейта : Постоянный
Битрейт : 384 Кбит/сек
Каналы : 6 каналов
Расположение каналов : Front: L C R, Side: L R, LFE
Частота : 48,0 КГц
Битовая глубина : 16 бит
Метод сжатия : С потерями
Размер потока : 358 Мбайт (11%)
Заголовок : Дублированный AC3 5.1 384 kbps
Язык : Russian

Аудио #2
Идентификатор : 3
Формат : AC-3
Формат/Информация : Audio Coding 3
Расширение режима : CM (complete main)
Идентификатор кодека : A_AC3
Продолжительность : 2 ч. 10 м.
Вид битрейта : Постоянный
Битрейт : 384 Кбит/сек
Каналы : 6 каналов
Расположение каналов : Front: L C R, Side: L R, LFE
Частота : 48,0 КГц
Битовая глубина : 16 бит
Метод сжатия : С потерями
Размер потока : 358 Мбайт (11%)
Заголовок : Авторский [Юрий Сербин] AC3 5.1 384 kbps
Язык : Russian

Аудио #3
Идентификатор : 4
Формат : AC-3
Формат/Информация : Audio Coding 3
Расширение режима : CM (complete main)
Идентификатор кодека : A_AC3
Продолжительность : 2 ч. 10 м.
Вид битрейта : Постоянный
Битрейт : 384 Кбит/сек
Каналы : 6 каналов
Расположение каналов : Front: L C R, Side: L R, LFE
Частота : 48,0 КГц
Битовая глубина : 16 бит
Метод сжатия : С потерями
Размер потока : 358 Мбайт (11%)
Заголовок : AC3 5.1 384 kbps
Язык : English

Текст #1
Идентификатор : 5
Формат : UTF-8
Идентификатор кодека : S_TEXT/UTF8
Идентификатор кодека/Информация : UTF-8 Plain Text
Заголовок : Полные
Язык : Russian

Текст #2
Идентификатор : 6
Формат : UTF-8
Идентификатор кодека : S_TEXT/UTF8
Идентификатор кодека/Информация : UTF-8 Plain Text
Заголовок : Полные
Язык : Ukrainian

Текст #3
Идентификатор : 7
Формат : UTF-8
Идентификатор кодека : S_TEXT/UTF8
Идентификатор кодека/Информация : UTF-8 Plain Text
Заголовок : Full
Язык : English

Текст #4
Идентификатор : 8
Формат : UTF-8
Идентификатор кодека : S_TEXT/UTF8
Идентификатор кодека/Информация : UTF-8 Plain Text
Заголовок : SDH
Язык : English

Текст #5
Идентификатор : 9
Формат : UTF-8
Идентификатор кодека : S_TEXT/UTF8
Идентификатор кодека/Информация : UTF-8 Plain Text
Заголовок : SDH [colored]
Язык : English

Меню
00:00:00.000 : en:Chapter 1
00:08:21.667 : en:Chapter 2
00:14:19.900 : en:Chapter 3
00:21:51.685 : en:Chapter 4
00:30:02.342 : en:Chapter 5
00:35:46.477 : en:Chapter 6
00:41:22.980 : en:Chapter 7
00:49:08.111 : en:Chapter 8
00:55:36.291 : en:Chapter 9
01:01:44.117 : en:Chapter 10
01:08:11.295 : en:Chapter 11
01:16:56.320 : en:Chapter 12
01:23:51.526 : en:Chapter 13
01:30:20.164 : en:Chapter 14
01:38:01.584 : en:Chapter 15
01:45:08.927 : en:Chapter 16
01:53:39.312 : en:Chapter 17
02:01:50.469 : en:Chapter 18




Релиз от:



   Похожие торренты   Торрент   Размер 
В этой теме нет новых непрочитанных сообщений. Джек Ричер / Jack Reacher (2012) BDRip 720p | D, A

471 | 43

4.22 ГБ

В этой теме нет новых непрочитанных сообщений. Джек Ричер / Jack Reacher (2012) BDRip-AVC | D | Лицензия

104 | 20

2.5 ГБ

В этой теме нет новых непрочитанных сообщений. Джек Ричер / Jack Reacher (2012) BDRip 1080p

311 | 31

7.76 ГБ

В этой теме нет новых непрочитанных сообщений. Джек Ричер / Jack Reacher (2012) BDRip от HQ-ViDEO | Лицензия

394 | 11

2.18 ГБ

В этой теме нет новых непрочитанных сообщений. Джек Ричер / Jack Reacher (2012) BDRip 720p от HELLYWOOD | D, A

39 | 4

8.86 ГБ

В этой теме нет новых непрочитанных сообщений. Джек Ричер / Jack Reacher (2012) BDRip-AVC от potroks | D | Лицензия

63 | 7

2.18 ГБ

В этой теме нет новых непрочитанных сообщений. Джек Ричер / Jack Reacher (2012) BDRip-AVC от leonardo 59 | iPad

5 | 3

2.21 ГБ




Вы не можете начинать темы
Вы не можете отвечать на сообщения
Вы не можете редактировать свои сообщения
Вы не можете удалять свои сообщения
Вы не можете добавлять вложения

Перейти:  
Для Мосгорсуда, Роскомнадзора и рекламодателей: mosgorsud-torrent[собачка]yandex.ru
 Вход
ppkBB3cker v.2 © 2008-2014 @ PPK
[ Time : 0.031s | 14 Queries | GZIP : Off ]
CGP output time : 0.028s | 5 Queries | GZIP : Off

Торрент трекер RUTOR.IN, Не можете зайти на rutor.org? Какой новый адрес рутор? Какое зеркало рутор? Не работает rutor.org и зеркала? Тогда наш торрент специально для вас. Rutor.in неофициальное зеркало rutor. В случае если у Вас заблокирован rutor или вдруг Вы не можете на него зайти, то Вы без труда сможете скачать бесплатно и без рекламы последние новинки кино, игр, сериалов и прочего у нас, на Rutor.in. Не нужно использовать прокси, чтобы зайти на рутор, достаточно воспользоваться нашим ресурсом. Все новые фильмы, игры, сериалы, книги и музыка за 2013 и 2014 годы через торрент бесплатно. Скачивайте фильмы в хорошем качестве, игры для пк, xbox, playstation без регистрации. У нас вы найдете новые Зарубежные сериалы и Русские сериалы 2013, 2014, 2015 годов. Оставайтесь с нами, качайте любимые фильмы, игры, сериалы, книги и музыку.