img image001 image001 image001 image001 image001 image001 image001 image001 image001 image001 image001 image001 image001 image001 image001

Planets Sun Sun Sun
Статистика раздачи
Автор: Снежана | Размер: 4.28 ГБ | Добавлен: 20 июл 2013
Раздают: 11    Качают: 3
Скачать торрент
Скачать торрент
Описание торрента

СообщениеДобавлено: 20 июл 2013 


Страна: США | USA
Жанр: боевик, триллер, драма, криминал
Год выпуска: 2010
Продолжительность: 01:33:58
Перевод: Профессиональный (дублированный) [Лицензия]
Cубтитры: английские, хинди, арабские, эстонские, иврит, литовские
Режиссер: Джордж Тиллман мл. / George Tillman Jr
В ролях: Дуэйн Джонсон, Билли Боб Торнтон, Оливер Джексон-Коэн, Карла Гуджино, Мэгги Грэйс, Мун Бладгуд, Адевале Акиннуойе-Агбадже, Том Беренджер, Маурицио Лопез, Джим Гейнс
Описание: Бывший преступник мстит за убийство родного брата во время ограбления десять лет назад, когда кто-то подставил нечистых на руку родственников.
Релиз от группы:

Сделано delik1 из DVD9 [исх. лицензия R5 - 6.08 GB, PAL 16:9],
Обработано в Обработано в DVDRemake Pro.+Photoshop+Muxman
Видео не сжималось
Удалёно: Hindi / Ukrainian / Tamil (Dolby AC3, 6 ch) , заставки и предупреждение и Доп материалы


Бонусы: Рекламный ролик
Меню: Русское частично анимированное
Сэмпл: multi-up.com
Тип релиза: DVD5 (Custom)
Контейнер: DVD-Video
Видео: PAL 16:9 (720x576) VBR - 6 294 Kbps
Аудио 1: Русский Дубляж (Dolby AC3, 6 ch)- 448Kbps
Аудио 2: Английский (Dolby AC3, 6 ch)- 448Kbps

Title:
Size: 4.28 Gb ( 4 485 998 KBytes ) - DVD-5
Enabled regions: 1, 2, 3, 4, 5, 6, 7, 8
VTS_01 :
Play Length: 01:33:58
Video: PAL 16:9 (720x576) VBR, Auto Letterboxed
Audio:
English (Dolby AC3, 6 ch)
Russian (Dolby AC3, 6 ch)
Subtitles:
English
Hindi
Russian
Arabic
Estonian
Hebrew
Lithuanian
VTS_02 :
Play Length:
Video: PAL 16:9 (720x576) VBR, Auto Letterboxed
Audio:
Not specified (Dolby AC3, 2 ch)
VTS_03 :
Play Length:
Video: PAL 16:9 (720x576) VBR, Auto Letterboxed
Audio:
Not specified (Dolby AC3, 2 ch)
VTS_04 :
Play Length:
Video: PAL 16:9 (720x576) VBR, Auto Letterboxed
Audio:
Not specified (Dolby AC3, 2 ch)
VTS_05 :
Play Length:
Video: PAL 16:9 (720x576) VBR, Auto Pan&Scan
VTS_06 :
Play Length: 00:00:01
Video: PAL 4:3 (720x576) VBR
Audio:
Not specified (Dolby AC3, 2 ch)
VTS_07 :
Play Length:
Video: PAL 16:9 (720x576) VBR, Auto Letterboxed
VTS_08 :
Play Length:
Video: PAL 16:9 (720x576) VBR, Auto Letterboxed
VTS_09 :
Play Length: 00:00:01+00:00:05+00:00:03
Video: PAL 16:9 (720x576) VBR, Auto Letterboxed
Audio:
English (Dolby AC3, 2 ch)
VTS_10 :
Play Length: 00:01:18
Video: PAL 16:9 (720x576) VBR, Auto Letterboxed
Audio:
English (Dolby AC3, 6 ch)


General
Complete name : E:DVD5Быстрее пули R5-DVD-5 ( DRG by delik1 )VIDEO_TSVTS_01_1.VOB
Format : MPEG-PS
File size : 1 024 MiB
Duration : 22mn 44s
Overall bit rate : 6 294 Kbps
Video
ID : 224 (0xE0)
Format : MPEG Video
Format version : Version 2
Format profile : Main@Main
Format settings, BVOP : Yes
Format settings, Matrix : Default
Duration : 22mn 44s
Bit rate mode : Variable
Bit rate : 5 273 Kbps
Nominal bit rate : 9 800 Kbps
Width : 720 pixels
Height : 576 pixels
Display aspect ratio : 16:9
Frame rate : 25.000 fps
Standard : PAL
Color space : YUV
Chroma subsampling : 4:2:0
Bit depth : 8 bits
Scan type : Progressive
Scan order : Top Field First
Bits/(Pixel*Frame) : 0.509
Stream size : 858 MiB (84%)
Audio #1
ID : 128 (0x80)
Format : AC-3
Format/Info : Audio Coding 3
Mode extension : CM (complete main)
Duration : 22mn 44s
Bit rate mode : Constant
Bit rate : 448 Kbps
Channel(s) : 6 channels
Channel positions : Front: L C R, Side: L R, LFE
Sampling rate : 48.0 KHz
Stream size : 72.9 MiB (7%)
Audio #2
ID : 130 (0x82)
Format : AC-3
Format/Info : Audio Coding 3
Mode extension : CM (complete main)
Duration : 22mn 44s
Bit rate mode : Constant
Bit rate : 448 Kbps
Channel(s) : 6 channels
Channel positions : Front: L C R, Side: L R, LFE
Sampling rate : 48.0 KHz
Stream size : 72.9 MiB (7%)
Text #1
ID : 32 (0x20)
Format : RLE
Format/Info : Run-length encoding
Text #2
ID : 33 (0x21)
Format : RLE
Format/Info : Run-length encoding
Text #3
ID : 35 (0x23)
Format : RLE
Format/Info : Run-length encoding
Text #4
ID : 36 (0x24)
Format : RLE
Format/Info : Run-length encoding
Text #5
ID : 37 (0x25)
Format : RLE
Format/Info : Run-length encoding
Text #6
ID : 38 (0x26)
Format : RLE
Format/Info : Run-length encoding
Menu










   Похожие торренты   Торрент   Размер 
В этой теме нет новых непрочитанных сообщений. Быстрее пули / Faster (2010) Blu-Ray CEE

0 | 3

32.7 ГБ

В этой теме нет новых непрочитанных сообщений. Быстрее пули / Faster (2010) BDRip от HQCLUB

117 | 19

1.45 ГБ

В этой теме нет новых непрочитанных сообщений. Быстрее пули / Faster (2010) HDRip от NovaLan

15 | 5

2.06 ГБ

В этой теме нет новых непрочитанных сообщений. Быстрее пули / Faster (2010) HDRip-AVC от FireBit

4 | 2

1.46 ГБ

В этой теме нет новых непрочитанных сообщений. Быстрее пули / Faster (2010) HDRip-AVC от potroks

37 | 13

2.2 ГБ

В этой теме нет новых непрочитанных сообщений. Быстрее пули / Faster (2010) Blu-Ray Remux 1080p

0 | 2

20.88 ГБ

В этой теме нет новых непрочитанных сообщений. Быстрее пули / Faster (2010) BD Remux от Neofilm

0 | 3

20.34 ГБ




Вы не можете начинать темы
Вы не можете отвечать на сообщения
Вы не можете редактировать свои сообщения
Вы не можете удалять свои сообщения
Вы не можете добавлять вложения

Перейти:  
 Вход
ppkBB3cker v.2 © 2008-2014 @ PPK
[ Time : 0.043s | 16 Queries | GZIP : Off ]

cron