img image001 image001 image001 image001 image001 image001 image001 image001 image001 image001 image001 image001 image001 image001 image001 image001

Planets Sun Sun Sun
Статистика раздачи
Автор: PriZraK | Размер: 2.18 ГБ | Добавлен: 13 фев 2014
Раздают: 21    Качают: 6
Скачать торрент
Скачать торрент
Описание торрента

СообщениеДобавлено: 13 фев 2014 



Страна: США
Производство: Gold Circle Films
Жанр: Ужасы
Год выпуска: 2009

Продолжительность: 01:47:59
Перевод: Профессиональный многоголосый, профессиональный двухголосый, авторский (Немахов)

Оригинальная аудиодорожка: Английская

Режиссер: Луисо Бердейо
В ролях: Кевин Костнер, Ивана Бакеро, Гэтлин Гриффит, Саманта Мэтис, Ноа Тейлор, Маргарет Энн Флоренс, Эрик Палладино, Джеймс Гэммон, Гари Энтин, Эдмунд Энтин, Сандра Эллис Лафферти, Джеймс Мидлтон


Описание: После тяжелого развода, Джон забирает обоих своих детей и переезжает в глухую деревушку в штате Иллинойс, чтобы начать жизнь сначала. Но вскоре его старшая дочь становится странной и замкнутой, а в семье начинают происходить загадочные и зловещие вещи.

Исходник: DVD9 R1

Тип релиза: DVDRip

Контейнер: AVI
Видео: 704x304 (2.32:1), 23.976 fps, XviD ~1157 kbps avg, 0.23 bit/pixel
Аудио: #1: 48 kHz, AC3 6.0 ~384.00 kbps avg (RUS)
Аудио: #2: 48 kHz, AC3 6.0 ~448.00 kbps avg (RUS)
Аудио: #3: 48 kHz, AC3 6.0 ~448.00 kbps avg (RUS)
Аудио: #4: 48 kHz, AC3 6.0 ~448.00 kbps avg (ENG)

Общее
Полное имя : D:1АААПроклятая.avi
Формат : AVI
Формат/Информация : Audio Video Interleave
Профиль формата : OpenDML
Размер файла : 2,18 Гбайт
Продолжительность : 1 ч. 47 м.
Общий поток : 2892 Кбит/сек
Программа кодирования : VirtualDubMod 1.5.10.2 (build 2540/release)
Библиотека кодирования : VirtualDubMod build 2540/release

Видео
Идентификатор : 0
Формат : MPEG-4 Visual
Профиль формата : Advanced Simple@L5
Параметр BVOP формата : 2
Параметр QPel формата : Нет
Параметр GMC формата : Без точки перехода
Параметр матрицы формата : Default (MPEG)
Режим смешивания : Сжатый битовый поток
Идентификатор кодека : XVID
Идентификатор кодека/Подсказка : XviD
Продолжительность : 1 ч. 47 м.
Битрейт : 1135 Кбит/сек
Ширина : 704 пикселя
Высота : 304 пикселя
Соотношение сторон : 2,35:1
Частота кадров : 23,976 кадра/сек
Цветовое пространство : YUV
Субдискретизация насыщенности : 4:2:0
Битовая глубина : 8 бит
Тип развёртки : Прогрессивная
Метод сжатия : С потерями
Бит/(Пиксели*Кадры) : 0.221
Размер потока : 877 Мбайт (39%)
Библиотека кодирования : XviD 1.2.1 (UTC 2008-12-04)

Аудио #1
Идентификатор : 1
Формат : AC-3
Формат/Информация : Audio Coding 3
Расширение режима : CM (complete main)
Параметр Endianness формата : Big
Идентификатор кодека : 2000
Продолжительность : 1 ч. 47 м.
Вид битрейта : Постоянный
Битрейт : 384 Кбит/сек
Каналы : 6 каналов
Расположение каналов : Front: L C R, Side: L R, LFE
Частота : 48,0 КГц
Битовая глубина : 16 бит
Метод сжатия : С потерями
Размер потока : 297 Мбайт (13%)
Выравнивание : Разделение по промежуткам
Продолжительность промежутка : 42 мс. (1,00 видеокадр)
Время предзагрузки промежутка : 500 мс.

Аудио #2
Идентификатор : 2
Формат : AC-3
Формат/Информация : Audio Coding 3
Расширение режима : CM (complete main)
Параметр Endianness формата : Big
Идентификатор кодека : 2000
Продолжительность : 1 ч. 47 м.
Вид битрейта : Постоянный
Битрейт : 448 Кбит/сек
Каналы : 6 каналов
Расположение каналов : Front: L C R, Side: L R, LFE
Частота : 48,0 КГц
Битовая глубина : 16 бит
Метод сжатия : С потерями
Размер потока : 346 Мбайт (15%)
Выравнивание : Разделение по промежуткам
Продолжительность промежутка : 42 мс. (1,00 видеокадр)
Время предзагрузки промежутка : 500 мс.

Аудио #3
Идентификатор : 3
Формат : AC-3
Формат/Информация : Audio Coding 3
Расширение режима : CM (complete main)
Параметр Endianness формата : Big
Идентификатор кодека : 2000
Продолжительность : 1 ч. 47 м.
Вид битрейта : Постоянный
Битрейт : 448 Кбит/сек
Каналы : 6 каналов
Расположение каналов : Front: L C R, Side: L R, LFE
Частота : 48,0 КГц
Битовая глубина : 16 бит
Метод сжатия : С потерями
Размер потока : 346 Мбайт (15%)
Выравнивание : Разделение по промежуткам
Продолжительность промежутка : 42 мс. (1,00 видеокадр)
Время предзагрузки промежутка : 500 мс.

Аудио #4
Идентификатор : 4
Формат : AC-3
Формат/Информация : Audio Coding 3
Расширение режима : CM (complete main)
Параметр Endianness формата : Big
Идентификатор кодека : 2000
Продолжительность : 1 ч. 47 м.
Вид битрейта : Постоянный
Битрейт : 448 Кбит/сек
Каналы : 6 каналов
Расположение каналов : Front: L C R, Side: L R, LFE
Частота : 48,0 КГц
Битовая глубина : 16 бит
Метод сжатия : С потерями
Размер потока : 346 Мбайт (15%)
Выравнивание : Разделение по промежуткам
Продолжительность промежутка : 42 мс. (1,00 видеокадр)
Время предзагрузки промежутка : 500 мс.





Релиз группа:

Автор рипа:



   Похожие торренты   Торрент   Размер 
В этой теме нет новых непрочитанных сообщений. Ты, проклятая жизнь / Te rongyos élet (1984) DVDRip | L1

11 | 3

1.46 ГБ

В этой теме нет новых непрочитанных сообщений. Ты, проклятая жизнь / Te rongyos élet (1984) DVDRip | L1

10 | 4

1.47 ГБ

В этой теме нет новых непрочитанных сообщений. Дочь дьявола / To the Devil a Daughter (1976) DVDRip

29 | 9

1.46 ГБ

В этой теме нет новых непрочитанных сообщений. Двуликий убийца / My Daughter's Secret (2007) DVDRip | P

185 | 6

1.36 ГБ

В этой теме нет новых непрочитанных сообщений. Ограбление века / Святая вода / Holy Water (2009) DVDRip - от NovaLan

9 | 7

1.36 ГБ

В этой теме нет новых непрочитанных сообщений. Первая дочь / В погоне за свободой / Chasing Liberty / First Daughter (2004) DVDRip от =-HD-NET=-| КПК | P

4 | 3

517 МБ

В этой теме нет новых непрочитанных сообщений. Дочь Дракулы / La fille de Dracula / Dracula's daughter (1972) DVDRip от KinoRay & Sheikn | A

80 | 15

700.86 МБ




Вы не можете начинать темы
Вы не можете отвечать на сообщения
Вы не можете редактировать свои сообщения
Вы не можете удалять свои сообщения
Вы не можете добавлять вложения

Перейти:  
 Вход
ppkBB3cker v.2 © 2008-2014 @ PPK
[ Time : 0.023s | 15 Queries | GZIP : Off ]

cron