img image001 image001 image001 image001 image001 image001 image001 image001 image001 image001 image001 image001 image001 image001 image001 image001

Planets Sun Sun Sun
Статистика раздачи
Автор: PriZraK | Размер: 2.18 ГБ | Добавлен: 13 фев 2014
Раздают: 25    Качают: 8
Скачать торрент
Скачать торрент
Описание торрента

СообщениеДобавлено: 13 фев 2014 




Информация о фильме
Название: Ночь Кометы
Оригинальное название: Night of the Comet
Год выхода: 1984
Жанр: Ужасы, фантастика, триллер, комедия
Режиссер: Том Эберхардт
В ролях: Роберт Белтран, Катрин Мэри Стюарт, Зои Келли Саймон, Шарон Фаррелл, Мэри Воронов, Джеффри Льюис, Питер Фокс, Майкл Боуэн, Девон Эриксон

О фильме:
Мир сошел с ума. К Земле приближается комета. Приходит Конец Света, в который никто не верил. Ночью - пир во время чумы, а утром наступает отрезвление. Сколько человек осталось на всей планете? 18-летняя Рэгги, мастерица ставить рекорды на игральных автоматах, её младшая сестренка Кэти, парень-полицейский, несколько преступников, дорвавшихся до свободы, которая им не очень-то и нужна, и зомби, там и сям выползающие на свет, словно отравленные химикатами крысы. А от всего прочего человечества - одна лишь пыль!

Страна: США / Film Development Fund, Thomas Coleman and Michael Rosenblatt Productions
Продолжительность: 01:35:12
Перевод: Профессиональный двухголосый, авторский

Файл
Кодек: x264
Качество: BDRip-AVC
Видео: MPEG-4 AVC, 2448 Кбит/с, 1024x554, 23.976 кадр/с
Аудио #1: Русский (AC3, 2 ch, 192 Кбит/с) / Профессиональный двухголосый
Аудио #2: Русский (AC3, 2 ch, 192 Кбит/с) / Авторский одноголосый (С. Визгунов)
Аудио #3: Английский (AC3, 6 ch, 448 Кбит/с)
Субтитры: Английские

Семпл

x264 [info]: frame I:970 Avg QP:15.38 size: 68258
x264 [info]: frame P:24608 Avg QP:17.65 size: 24483
x264 [info]: frame B:111365 Avg QP:19.30 size: 9682

Format : Matroska
Format version : Version 4 / Version 2
File size : 2.18 GiB
Duration : 1h 35mn
Overall bit rate : 3 281 Kbps
Movie name : -=MediaClub - Odessit=-
Encoded date : UTC 2013-12-15 13:30:53
Writing application : mkvmerge v6.1.0 ('Old Devil') built on Mar 4 2013 09:10:42
Writing library : libebml v1.3.0 + libmatroska v1.4.0

Video
ID : 1
Format : AVC
Format/Info : Advanced Video Codec
Format profile : High@L4.1
Format settings, CABAC : Yes
Format settings, ReFrames : 9 frames
Codec ID : V_MPEG4/ISO/AVC
Duration : 1h 35mn
Bit rate : 2 448 Kbps
Width : 1 024 pixels
Height : 554 pixels
Display aspect ratio : 16:9
Frame rate : 23.976 fps
Color space : YUV
Chroma subsampling : 4:2:0
Bit depth : 8 bits
Scan type : Progressive
Bits/(Pixel*Frame) : 0.180
Stream size : 1.59 GiB (73%)
Writing library : x264 core 130 r2273 b3065e6
Encoding settings : cabac=1 / ref=9 / deblock=1:-2:-2 / analyse=0x3:0x133 / me=umh / subme=11 / psy=1 / psy_rd=1.00:0.20 / mixed_ref=1 / me_range=48 / chroma_me=1 / trellis=2 / 8x8dct=1 / cqm=0 / deadzone=21,11 / fast_pskip=0 / chroma_qp_offset=-3 / threads=6 / lookahead_threads=1 / sliced_threads=0 / nr=0 / decimate=0 / interlaced=0 / bluray_compat=0 / constrained_intra=0 / bframes=10 / b_pyramid=2 / b_adapt=2 / b_bias=0 / direct=3 / weightb=1 / open_gop=0 / weightp=2 / keyint=240 / keyint_min=23 / scenecut=40 / intra_refresh=0 / rc=2pass / mbtree=0 / bitrate=2448 / ratetol=1.0 / qcomp=0.60 / qpmin=0 / qpmax=69 / qpstep=4 / cplxblur=20.0 / qblur=0.5 / ip_ratio=1.40 / pb_ratio=1.30 / aq=1:1.00
Language : English

Audio #1
ID : 2
Format : AC-3
Format/Info : Audio Coding 3
Mode extension : CM (complete main)
Codec ID : A_AC3
Duration : 1h 35mn
Bit rate mode : Constant
Bit rate : 192 Kbps
Channel(s) : 2 channels
Channel positions : Front: L R
Sampling rate : 48.0 KHz
Bit depth : 16 bits
Compression mode : Lossy
Stream size : 131 MiB (6%)
Title : Профессиональный двухголосый
Language : Russian

Audio #2
ID : 3
Format : AC-3
Format/Info : Audio Coding 3
Mode extension : CM (complete main)
Codec ID : A_AC3
Duration : 1h 35mn
Bit rate mode : Constant
Bit rate : 192 Kbps
Channel(s) : 2 channels
Channel positions : Front: L R
Sampling rate : 48.0 KHz
Bit depth : 16 bits
Compression mode : Lossy
Stream size : 131 MiB (6%)
Title : Авторский одноголосый (С. Визгунов)
Language : Russian

Audio #3
ID : 4
Format : AC-3
Format/Info : Audio Coding 3
Mode extension : CM (complete main)
Codec ID : A_AC3
Duration : 1h 35mn
Bit rate mode : Constant
Bit rate : 448 Kbps
Channel(s) : 6 channels
Channel positions : Front: L C R, Side: L R, LFE
Sampling rate : 48.0 KHz
Bit depth : 16 bits
Compression mode : Lossy
Stream size : 305 MiB (14%)
Language : English

Text
ID : 5
Format : UTF-8
Codec ID : S_TEXT/UTF8
Codec ID/Info : UTF-8 Plain Text
Language : English

Menu
00:00:00.000 : en:Chapter 01
00:06:33.392 : en:Chapter 02
00:11:07.291 : en:Chapter 03
00:19:25.789 : en:Chapter 04
00:26:07.190 : en:Chapter 05
00:34:12.675 : en:Chapter 06
00:43:49.251 : en:Chapter 07
00:50:42.039 : en:Chapter 08
00:58:35.512 : en:Chapter 09
01:05:07.904 : en:Chapter 10
01:11:52.933 : en:Chapter 11
01:22:09.925 : en:Chapter 12



Релиз от: |



   Похожие торренты   Торрент   Размер 
В этой теме нет новых непрочитанных сообщений. Ночь Кометы / Night of the Comet (1984) BDRip 720p от MediaClub | P2, A

4 | 6

3.21 ГБ

В этой теме нет новых непрочитанных сообщений. Ночь кометы / Night of the Comet (1984) BDRip | P2

5 | 14

1.46 ГБ

В этой теме нет новых непрочитанных сообщений. Ночь Кометы / Night of the Comet (1984) BDRip 1080p

29 | 6

8.16 ГБ

В этой теме нет новых непрочитанных сообщений. Ночь кометы / Night of the Comet (1984) BDRip 720p | P2, A

86 | 152

3.34 ГБ

В этой теме нет новых непрочитанных сообщений. Ночь кометы / Night of the Comet (1984) HDRip | P2

41 | 5

744.68 МБ

В этой теме нет новых непрочитанных сообщений. Ночь кометы / Night of the Comet (Том Эберхардт) [1984, фантастика, комедия, ужасы, BDRip] DVO / Фантастика

7 | 0

1.46 ГБ

В этой теме нет новых непрочитанных сообщений. Тихая ночь, смертельная ночь / Silent Night, Deadly Night (1984) BDRip от HQCLUB

3 | 0

1.45 ГБ




Вы не можете начинать темы
Вы не можете отвечать на сообщения
Вы не можете редактировать свои сообщения
Вы не можете удалять свои сообщения
Вы не можете добавлять вложения

Перейти:  
 Вход
ppkBB3cker v.2 © 2008-2014 @ PPK
[ Time : 0.034s | 15 Queries | GZIP : Off ]

cron