img image001 image001 image001 image001 image001 image001 image001 image001 image001 image001 image001 image001 image001 image001 image001 image001

Planets Sun Sun Sun
Статистика раздачи
Автор: PriZraK | Размер: 745.98 МБ | Добавлен: 13 фев 2014
Раздают: 32    Качают: 2
Скачать торрент
Скачать торрент
Описание торрента

СообщениеДобавлено: 13 фев 2014 




Информация о фильме
Название: Кекс в большом городе / Признания отвергнутой женщины
Оригинальное название: The Sweeter Side of Life
Год выхода: 2013
Жанр: Комедия
Режиссер: Майкл Дамиан / Maikl Damian
В ролях: Кэтрин Моррис, Джеймс Бест, Аластер Маккензи, Steve Varnom, Сэм Дуглас, Стефен Хоган, Джейн Марч, Christine Oram, Джером Холдер, Джеффри Бертон...

О фильме:
Перед избалованной деньгами домохозяйкой с Манхетена возникает дилемма: муж внезапно бросает её и оставляет без денег. Находясь в безвыходном положении, она решает устроиться в пекарню в захолустном районе. Вскоре становится ясно, что в этих новых условиях её жизнь становится гораздо интереснее и полнее…



Страна: США
Студия: Motion Picture Corporation of America (MPCA), Riviera Films
Продолжительность: 01:25:38
Перевод: Профессиональный (многоголосый закадровый) Лицензия

Файл
Кодек: XviD (AVI)
Качество: DVDRip
Видео: 656x368 (1.78:1), 25 fps, XviD build 50 ~1080 kbps avg, 0.18 bit/pixel
Звук: 48 kHz, MPEG Layer 3, 2 ch, ~128.00 kbps avg

Семпл





General
Complete name : /Keks_v_bolshom_gorode_2013_DVDRip_740_Один 777.avi
Format : AVI
Format/Info : Audio Video Interleave
File size : 746 MiB
Duration : 1h 25mn
Overall bit rate : 1 218 Kbps
Writing application : VirtualDubMod 1.5.10.3 | www.virtualdub-fr.org || (build 2550/release)
Writing library : VirtualDubMod build 2550/release

Video
ID : 0
Format : MPEG-4 Visual
Format profile : Advanced Simple@L5
Format settings, BVOP : 1
Format settings, QPel : No
Format settings, GMC : No warppoints
Format settings, Matrix : Default (MPEG)
Codec ID : XVID
Codec ID/Hint : XviD
Duration : 1h 25mn
Bit rate : 1 080 Kbps
Width : 656 pixels
Height : 368 pixels
Display aspect ratio : 16:9
Frame rate : 25.000 fps
Color space : YUV
Chroma subsampling : 4:2:0
Bit depth : 8 bits
Scan type : Progressive
Compression mode : Lossy
Bits/(Pixel*Frame) : 0.179
Stream size : 662 MiB (89%)
Writing library : XviD 1.2.1 (UTC 2008-12-04)

Audio
ID : 1
Format : MPEG Audio
Format version : Version 1
Format profile : Layer 3
Codec ID : 55
Codec ID/Hint : MP3
Duration : 1h 25mn
Bit rate mode : Constant
Bit rate : 128 Kbps
Channel(s) : 2 channels
Sampling rate : 48.0 KHz
Compression mode : Lossy
Stream size : 78.2 MiB (10%)
Alignment : Aligned on interleaves
Interleave, duration : 40 ms (1.00 video frame)
Interleave, preload duration : 504 ms
Writing library : LAME3.98r
Encoding settings : -m s -V 4 -q 2 -lowpass 17 -b 128



   Похожие торренты   Торрент   Размер 
В этой теме нет новых непрочитанных сообщений. Кекс в большом городе / The Sweeter Side of Life (2013) DVDRip | Лицензия

15 | 2

1.46 ГБ

В этой теме нет новых непрочитанных сообщений. Любовь в большом городе 3 (2013) DVDRip от -=HD-NET=- | КПК | Лицензия

289 | 9

329.72 МБ

В этой теме нет новых непрочитанных сообщений. Любовь в большом городе 2 (2010) DVDRip

234 | 11

699.47 МБ

В этой теме нет новых непрочитанных сообщений. Любовь в большом городе (2009) DVDRip

129 | 16

699.81 МБ

В этой теме нет новых непрочитанных сообщений. Любовь в большом городе 3 (2013) DVD5 от ivandubskoj

907 | 89

3.68 ГБ

В этой теме нет новых непрочитанных сообщений. Любовь в большом городе 3 (2013) WEB-DLRip от ivandubskoj

164 | 10

1.43 ГБ

В этой теме нет новых непрочитанных сообщений. Любовь в большом городе 3 (2013) HDRip от Scarabey

338 | 17

744.67 МБ




Вы не можете начинать темы
Вы не можете отвечать на сообщения
Вы не можете редактировать свои сообщения
Вы не можете удалять свои сообщения
Вы не можете добавлять вложения

Перейти:  
 Вход
ppkBB3cker v.2 © 2008-2014 @ PPK
[ Time : 0.024s | 16 Queries | GZIP : Off ]

cron