img image001 image001 image001 image001 image001 image001 image001 image001 image001 image001 image001 image001 image001 image001 image001 image001

Planets Sun Sun Sun
Статистика раздачи
Автор: PriZraK | Размер: 11.48 ГБ | Добавлен: 13 фев 2014
Раздают: 6    Качают: 9
Скачать торрент
Скачать торрент
Описание торрента

СообщениеДобавлено: 13 фев 2014 


В поисках приключений

The Quest

«Пройди весь путь до конца!»




#77
Год выпуска: 1996
Страна: США
Жанр: боевик, триллер, приключения
Продолжительность: 01:34:35
Перевод: Профессиональный (многоголосый закадровый)
Субтитры: Russian (UTF-8), English (UTF-8)

Режиссер: Жан-Клод Ван Дамм
Сценарий: Стивен Клейн, Пол Моунс, Фрэнк Дюкс, ...
Продюсер: Моше Дайамант, Джейсон Кларк, Роберт Хэцки, ...
Оператор: Дэвид Гриббл
Композитор: Рэнди Эдельман
Художник: Стив Спенс, Серж Бьюро, Лэк Чхайянь Чхун-суттиват, ...
Монтаж: Джон Ф. Линк, Уильям Дж. Мешовер

В ролях: Жан-Клод Ван Дамм / Jean-Claude Van Damme (Christopher Dubois), Роджер Мур / Roger Moore (Lord Edgar Dobbs), Джеймс Римар / James Remar (Maxie Devine), Джанет Ганн / Janet Gunn (Carrie Newton), Джек МакГи / Jack McGee (Harry Smythe), Аки Алеонг / Aki Aleong (Khao), Абдель Кисси / Abdel Qissi (Khan, (Mongolian Fighter)), Луис Мэндилор / Louis Mandylor (Riggi), Чанг Чинг Пенг Чаплин / Chang Ching Peng Chaplin (Master Tchi), Райан Кутрона / Ryan Cutrona (Officer O'Keefe)

Описание: Было время, когда в мире еще хватало места для пиратской резни, ловушек контрабандистов, работорговцев и древних тайн загадочного Востока. Когда настоящие мужчины могли отправиться на поиски невероятных приключений. Уличный преступник отправляется в путешествие в поисках своего прошлого и будущего.Его одиссея проходит через самые экзотические страны и живописнейшие уголки земного шара, от подворотен Нью-Йорка до загадочного волшебного тибетского Затерянного Города, где становится для него испытанием на честь и мужество в древних мифических состязаниях «Ган-генг» — боях до победного конца лучших бойцов со всего мира за обладание вожделенным призом — Золотым Драконом.


Бюджет: $30 000 000
Сборы в США: $21 686 547
Сборы в мире: + $35 714 000 = $57 400 547
Зрители: США 4.91 млн , Франция 565.7 тыс. , Испания 533.9 тыс.
Премьера (мир): 19 апреля 1996,
Рейтинг MPAA: Детям до 13 лет просмотр не желателен



Качество: BDRip 1080р
Формат: MKV
Видео кодек: AVC
Аудио кодеk: DTS + AC3
Видео: 1920x816 (2.35:1), 23.976 fps, AVC, 12.8 Mbps

Аудио #1: AC3, 384 Kbps, 48.0 KHz, 6 ch (Профессиональный двухголосый)Twister
Аудио #2: AC3, 192 Kbps, 48.0 KHz, 2 ch (Профессиональный многоголосый)ТK "Россия" (Студия Нота, 1999)
Аудио #3: AC3, 192 Kbps, 48.0 KHz, 2 ch (Профессиональный многоголосый)
Аудио #4: AC3, 192 Kbps, 48.0 KHz, 2 ch (Профессиональный многоголосый)ТК ОРТ
Аудио #5: AC3, 192 Kbps, 48.0 KHz, 2 ch (Профессиональный двухголосый)ТК ТВЦ
Аудио #6: DTS, 1 510 Kbps, 48.0 KHz, 6 ch (Авторский - Ю. Живов)
Аудио #7: AC3, 192 Kbps, 48.0 KHz, 2 ch (Авторский - А. Гаврилов)
Аудио #8: AC3, 192 Kbps, 48.0 KHz, 2 ch (Авторский - А. Кашкин)
Аудио #9: DTS, 1 510 Kbps, 48.0 KHz, 6 ch English





Лог:
- x264 [info]: frame I:1016 Avg QP:14.71 size:260338
- x264 [info]: frame P:32133 Avg QP:17.10 size:106015
- x264 [info]: frame B:102915 Avg QP:19.24 size: 52681
- x264 [info]: consecutive B-frames: 2.7% 4.9% 12.0% 16.3% 17.2% 43.5% 2.4% 0.4% 0.3% 0.3%

General
Complete name : V.poiskah.priklyuchenij.1996.BDRip.1080p.mkv
Format : Matroska
File size : 11.5 GiB
Duration : 1h 34mn
Overall bit rate : 17.4 Mbps
Encoded date : UTC 2013-12-20 11:04:22
Writing application : mkvmerge v6.5.0 ('Isn't she lovely') built on Oct 20 2013 12:50:05
Writing library : libebml v1.3.0 + libmatroska v1.4.1

Video
ID : 1
Format : AVC
Format/Info : Advanced Video Codec
Format profile : High@L4.1
Format settings, CABAC : Yes
Format settings, ReFrames : 5 frames
Muxing mode : Container profile=Unknown@4.1
Codec ID : V_MPEG4/ISO/AVC
Duration : 1h 34mn
Bit rate : 12.8 Mbps
Width : 1 920 pixels
Height : 816 pixels
Display aspect ratio : 2.35:1
Frame rate : 23.976 fps
Color space : YUV
Chroma subsampling : 4:2:0
Bit depth : 8 bits
Scan type : Progressive
Bits/(Pixel*Frame) : 0.342
Stream size : 8.24 GiB (72%)
Writing library : x264 core 140 r2377 1ca7bb9
Encoding settings : cabac=1 / ref=5 / deblock=1:-1:-1 / analyse=0x3:0x133 / me=umh / subme=10 / psy=1 / psy_rd=1.00:0.00 / mixed_ref=1 / me_range=32 / chroma_me=1 / trellis=2 / 8x8dct=1 / cqm=0 / deadzone=21,11 / fast_pskip=0 / chroma_qp_offset=-2 / threads=6 / lookahead_threads=1 / sliced_threads=0 / nr=0 / decimate=1 / interlaced=0 / bluray_compat=0 / constrained_intra=0 / bframes=9 / b_pyramid=2 / b_adapt=2 / b_bias=0 / direct=3 / weightb=1 / open_gop=0 / weightp=2 / keyint=240 / keyint_min=24 / scenecut=40 / intra_refresh=0 / rc_lookahead=50 / rc=2pass / mbtree=0 / bitrate=12838 / ratetol=2.0 / qcomp=1.00 / qpmin=0 / qpmax=51 / qpstep=4 / cplxblur=20.0 / qblur=0.5 / vbv_maxrate=50000 / vbv_bufsize=62500 / nal_hrd=none / filler=0 / ip_ratio=1.40 / pb_ratio=1.30 / aq=1:1.00
Color primaries : BT.709-5, BT.1361, IEC 61966-2-4, SMPTE RP177
Transfer characteristics : BT.709-5, BT.1361
Matrix coefficients : BT.709-5, BT.1361, IEC 61966-2-4 709, SMPTE RP177

Audio #1
ID : 2
Format : AC-3
Format/Info : Audio Coding 3
Mode extension : CM (complete main)
Codec ID : A_AC3
Duration : 1h 34mn
Bit rate mode : Constant
Bit rate : 384 Kbps
Channel(s) : 6 channels
Channel positions : Front: L C R, Side: L R, LFE
Sampling rate : 48.0 KHz
Bit depth : 16 bits
Stream size : 260 MiB (2%)
Title : DVO - Twister
Language : Russian

Audio #2
ID : 3
Format : AC-3
Format/Info : Audio Coding 3
Mode extension : CM (complete main)
Codec ID : A_AC3
Duration : 1h 34mn
Bit rate mode : Constant
Bit rate : 192 Kbps
Channel(s) : 2 channels
Channel positions : Front: L R
Sampling rate : 48.0 KHz
Bit depth : 16 bits
Stream size : 130 MiB (1%)
Title : MVO - ТK Россия
Language : Russian

Audio #3
ID : 4
Format : AC-3
Format/Info : Audio Coding 3
Mode extension : CM (complete main)
Codec ID : A_AC3
Duration : 1h 34mn
Bit rate mode : Constant
Bit rate : 192 Kbps
Channel(s) : 2 channels
Channel positions : Front: L R
Sampling rate : 48.0 KHz
Bit depth : 16 bits
Stream size : 130 MiB (1%)
Title : MVO
Language : Russian

Audio #4
ID : 5
Format : AC-3
Format/Info : Audio Coding 3
Mode extension : CM (complete main)
Codec ID : A_AC3
Duration : 1h 34mn
Bit rate mode : Constant
Bit rate : 192 Kbps
Channel(s) : 2 channels
Channel positions : Front: L R
Sampling rate : 48.0 KHz
Bit depth : 16 bits
Stream size : 130 MiB (1%)
Title : MVO - ОРТ
Language : Russian

Audio #5
ID : 6
Format : AC-3
Format/Info : Audio Coding 3
Mode extension : CM (complete main)
Codec ID : A_AC3
Duration : 1h 34mn
Bit rate mode : Constant
Bit rate : 192 Kbps
Channel(s) : 2 channels
Channel positions : Front: L R
Sampling rate : 48.0 KHz
Bit depth : 16 bits
Stream size : 130 MiB (1%)
Title : DVO - ТВЦ
Language : Russian

Audio #6
ID : 7
Format : DTS
Format/Info : Digital Theater Systems
Codec ID : A_DTS
Duration : 1h 34mn
Bit rate mode : Constant
Bit rate : 1 510 Kbps
Channel(s) : 6 channels
Channel positions : Front: L C R, Side: L R, LFE
Sampling rate : 48.0 KHz
Bit depth : 24 bits
Stream size : 1 021 MiB (9%)
Title : AVO - Ю. Живов
Language : Russian

Audio #7
ID : 8
Format : AC-3
Format/Info : Audio Coding 3
Mode extension : CM (complete main)
Codec ID : A_AC3
Duration : 1h 34mn
Bit rate mode : Constant
Bit rate : 192 Kbps
Channel(s) : 2 channels
Channel positions : Front: L R
Sampling rate : 48.0 KHz
Bit depth : 16 bits
Stream size : 130 MiB (1%)
Title : AVO - А. Гаврилов
Language : Russian

Audio #8
ID : 9
Format : AC-3
Format/Info : Audio Coding 3
Mode extension : CM (complete main)
Codec ID : A_AC3
Duration : 1h 34mn
Bit rate mode : Constant
Bit rate : 192 Kbps
Channel(s) : 2 channels
Channel positions : Front: L R
Sampling rate : 48.0 KHz
Bit depth : 16 bits
Stream size : 130 MiB (1%)
Title : AVO - А. Кашкин
Language : Russian

Audio #9
ID : 10
Format : DTS
Format/Info : Digital Theater Systems
Codec ID : A_DTS
Duration : 1h 34mn
Bit rate mode : Constant
Bit rate : 1 510 Kbps
Channel(s) : 6 channels
Channel positions : Front: L C R, Side: L R, LFE
Sampling rate : 48.0 KHz
Bit depth : 24 bits
Stream size : 1 021 MiB (9%)

Text #1
ID : 11
Format : UTF-8
Codec ID : S_TEXT/UTF8
Codec ID/Info : UTF-8 Plain Text
Language : Russian

Text #2
ID : 12
Format : UTF-8
Codec ID : S_TEXT/UTF8
Codec ID/Info : UTF-8 Plain Text

Menu
00:00:00.000 : en:00:00:00.000
00:03:02.307 : en:00:03:02.307
00:07:03.923 : en:00:07:03.923
00:14:49.889 : en:00:14:49.889
00:20:49.665 : en:00:20:49.665
00:27:52.504 : en:00:27:52.504
00:35:59.282 : en:00:35:59.282
00:40:10.074 : en:00:40:10.074
00:46:52.184 : en:00:46:52.184
00:52:59.384 : en:00:52:59.384
00:59:32.568 : en:00:59:32.568
01:09:12.857 : en:01:09:12.857
01:14:04.273 : en:01:14:04.273
01:21:10.740 : en:01:21:10.740
01:25:49.644 : en:01:25:49.644
01:29:48.299 : en:01:29:48.299





Релиз группы:



   Похожие торренты   Торрент   Размер 
В этой теме нет новых непрочитанных сообщений. В поисках приключений / The Quest (1996) BDRip-AVC | P, P2, A

2 | 0

3.56 ГБ

В этой теме нет новых непрочитанных сообщений. В поисках приключений / The Quest (1996) BDRip | P

537 | 35

1.45 ГБ

В этой теме нет новых непрочитанных сообщений. В поисках приключений / The Quest (1996) BDRip 720 от SuperMin

254 | 34

3 ГБ

В этой теме нет новых непрочитанных сообщений. В поисках приключений / The Quest (1996) BDRip-AVC от MediaClub

7 | 4

3.37 ГБ

В этой теме нет новых непрочитанных сообщений. В поисках приключений / The Quest (1996) HDRip-AVC от New-Team | P

92 | 19

744.46 МБ

В этой теме нет новых непрочитанных сообщений. В поисках галактики / Galaxy Quest (1999) BDRip-HEVC 1080p | P

99 | 13

6.43 ГБ

В этой теме нет новых непрочитанных сообщений. Форт Росс: В поисках приключений (2014) WEB-DLRip 1080p

304 | 13

3.08 ГБ




Вы не можете начинать темы
Вы не можете отвечать на сообщения
Вы не можете редактировать свои сообщения
Вы не можете удалять свои сообщения
Вы не можете добавлять вложения

Перейти:  
 Вход
ppkBB3cker v.2 © 2008-2014 @ PPK
[ Time : 0.042s | 16 Queries | GZIP : Off ]

cron