img image001 image001 image001 image001 image001 image001 image001 image001 image001 image001 image001 image001 image001 image001 image001 image001

Planets Sun Sun Sun
Статистика раздачи
Автор: PriZraK | Размер: 744.03 МБ | Добавлен: 13 фев 2014
Раздают: 11    Качают: 4
Скачать торрент
Скачать торрент
Описание торрента

СообщениеДобавлено: 13 фев 2014 


#77
Страна: Италия
Производство: Intercapital
Жанр: комедия
Год выпуска: 1981
Продолжительность: 01:30:50

Перевод: Профессиональный (многоголосый закадровый)
Оригинальная аудиодорожка: нет
Cубтитры: нет

Режиссер: Франко Кастеллано / Franco Castellano, Джузеппе Моччиа / Giuseppe Moccia

В ролях:
Адриано Челентано (Adriano Celentano), Сильва Кошина (Sylva Koscina), Эдуидж Фенек (Edwige Fenech), Ренато Сальватори (Renato Salvatori), Пиппо Сантонастасо (Pippo Santonastaso)...

Описание:
Профессиональный карточный шулер по кличке Туз накануне свадьбы объявляет о своем решении завязать. Но неожиданно оказывается втянутым в крупную игру с Марсельцем. Молодая жена отпускает его на эту игру. Отчаянно блефуя, он срывает банк, но игра продолжается.
На него начинается охота и его убивает наемный убийца, после чего Туз превращается в… привидение, которое не может видеть никто, кроме его жены. Обретя таким трагическим образом новые возможности, он старается пристроить свою вдову и отомстить…





Исходник: DVD5 R5
Тип релиза: DVDRip
Контейнер: AVI

Видео: 672x400 (1.680:1), 25 fps, XviD ~ 1007 kbps avg, 0.150 bit/pixel
Аудио: 48 kHz, MP3 2.0, 128 kbps

Раздача от:
Общее
Полное имя : Tuz.1981.DVDRip-745_[New-team]_by_AVP_Studio.avi
Формат : AVI
Формат/Информация : Audio Video Interleave
Размер файла : 744 Мбайт
Продолжительность : 1 ч. 30 м.
Общий поток : 1145 Кбит/сек
Программа кодирования : VirtualDubModRus 1.5.10.2 (build 2542/release)
Библиотека кодирования : VirtualDubMod build 2542/release

Видео
Идентификатор : 0
Формат : MPEG-4 Visual
Профиль формата : Advanced Simple@L5
Параметр BVOP формата : 1
Параметр QPel формата : Нет
Параметр GMC формата : Без точки перехода
Параметр матрицы формата : Выборочная
Идентификатор кодека : XVID
Идентификатор кодека/Подсказка : XviD
Продолжительность : 1 ч. 30 м.
Битрейт : 1007 Кбит/сек
Ширина : 672 пикселя
Высота : 400 пикселей
Соотношение сторон : 1,680
Частота кадров : 25,000 кадров/сек
Цветовое пространство : YUV
Субдискретизация насыщенности : 4:2:0
Битовая глубина : 8 бит
Тип развёртки : Прогрессивная
Метод сжатия : С потерями
Бит/(Пиксели*Кадры) : 0.150
Размер потока : 655 Мбайт (88%)
Библиотека кодирования : XviD 73

Аудио
Идентификатор : 1
Формат : MPEG Audio
Версия формата : Version 1
Профиль формата : Layer 3
Идентификатор кодека : 55
Идентификатор кодека/Подсказка : MP3
Продолжительность : 1 ч. 30 м.
Вид битрейта : Постоянный
Битрейт : 128 Кбит/сек
Каналы : 2 канала
Частота : 48,0 КГц
Метод сжатия : С потерями
Размер потока : 83,2 Мбайт (11%)
Выравнивание : Соединение по промежуткам
Продолжительность промежутка : 40 мс. (1,00 видеокадр)
Время предзагрузки промежутка : 504 мс.
Библиотека кодирования : LAME3.99r
Настройки программы : -m s -V 4 -q 2 -lowpass 17 -b 128



В начале фильма герой Челентано разъезжает на мотоцикле «Днепр» пр. СССР.
В сцене карточной игры Челентано, по собственному замыслу, намеренно копирует знаменитого в Италии героя Раджа Капура из фильма «Господин 420». Радж Капур, по признанию Челентано, с детства является его любимым актёром, и именно эту сцену он мечтал включить в фильм.
Фильм «Туз» стал седьмой работой Челентано с творческим дуэтом Кастеллано и Пиполо.



   Похожие торренты   Торрент   Размер 
В этой теме нет новых непрочитанных сообщений. Туз / Asso (1981) DVDRip от New-Team

10 | 3

1.46 ГБ

В этой теме нет новых непрочитанных сообщений. Туз / Asso (1981) DVDRip-AVC от New-Team

66 | 9

1.46 ГБ

В этой теме нет новых непрочитанных сообщений. Туз / Asso (1981) BDRip от Koenig | P, A

14 | 0

1.45 ГБ

В этой теме нет новых непрочитанных сообщений. Туз / Asso (1981) BDRip 1080p | P, A

15 | 2

9.78 ГБ

В этой теме нет новых непрочитанных сообщений. Шестой (1981) DVDRip от New-Team

97 | 15

744.52 МБ

В этой теме нет новых непрочитанных сообщений. Всё наоборот (1981) DVDRip-AVC от New-Team

15 | 4

744.64 МБ

В этой теме нет новых непрочитанных сообщений. Шестой (1981) DVDRip от New-Team

171 | 10

1.46 ГБ




Вы не можете начинать темы
Вы не можете отвечать на сообщения
Вы не можете редактировать свои сообщения
Вы не можете удалять свои сообщения
Вы не можете добавлять вложения

Перейти:  
 Вход
ppkBB3cker v.2 © 2008-2014 @ PPK
[ Time : 0.053s | 17 Queries | GZIP : Off ]

cron