img image001 image001 image001 image001 image001 image001 image001 image001 image001 image001 image001 image001 image001 image001 image001

Planets Sun Sun Sun
Статистика раздачи
Автор: PriZraK | Размер: 11.52 ГБ | Добавлен: 13 фев 2014
Раздают: 213    Качают: 2
Скачать торрент
Скачать торрент
Описание торрента

СообщениеДобавлено: 13 фев 2014 




Информация о фильме
Название: Общество мертвых поэтов
Оригинальное название: Dead Poets Society
Год выхода: 1989
Жанр: Драма
Режиссер: Питер Уир
В ролях: Робин Уильямс, Итан Хоук, Джош Чарльз, Гейл Хэнсен, Дилан Кассман, Аллелон Руджеро, Джеймс Уотерстон, Норман Ллойд, Кертвуд Смит

О фильме:
Джон Китинг — новый преподаватель английской словесности в консервативном американском колледже. От чопорной массы учителей его выгодно отличают легкость общения, эксцентричное поведение и пренебрежение к программе обучения.

Однажды он посвящает своих подопечных в тайну Общества мёртвых поэтов. С этого момента каждый из учеников старается обрести свой собственный голос в безликом хоре, взглянуть на окружающий мир, высоко подпрыгнув над серой школьной оградой.



Страна: США
Студия: Silver Screen Partners IV, Touchstone Pictures
Продолжительность: 02:08:44
Перевод: Дублированный |СВ-Дубль, телеканал Россия| + Профессиональный (многоголосый, закадровый) + Профессиональный (двухголосый, закадровый) |R5| + Авторский (одноголосый, закадровый) Алексей Михалёв + Оригинал

Файл
Кодек: x264
Качество: BDRip 1080p (источник: Blu-ray Remux / 1080p)
Видео: 1920х1040 (1.85:1), 10746 Kbps, 23.976 fps, 0.224 bit/pixel
Аудио #1: 48.0 kHz, AC3 Dolby Digital, 2/0 (L,R) ch, 192 kbps [Дубляж, СВ-Дубль, телеканал Россия]
Аудио #2: 48.0 kHz, AC3 Dolby Digital, 3/2 (L,C,R,l,r) + LFE ch, 640 kbps [Многоголосый]
Аудио #3: 48.0 kHz, AC3 Dolby Digital, 2/0 (L,R) ch, 192 kbps [Двухголосый, R5]
Аудио #4: 48.0 kHz, AC3 Dolby Digital, 3/2 (L,C,R,l,r) + LFE ch, 384 kbps [Авторский, А. Михалёв]
Аудио #5: 48.0 kHz, AC3 Dolby Digital, 3/2 (L,C,R,l,r) + LFE ch, 640 kbps [Оригинал, Английский]
Субтитры: Русские [форсированные, полные, SDH], английские [SDH]

Семпл



x264 [info]: frame I:1073 Avg QP:16.64 size:184941
x264 [info]: frame P:33954 Avg QP:19.39 size: 98239
x264 [info]: frame B:150168 Avg QP:21.01 size: 45534
General
Unique ID : 196276515718314795940102646657446681703 (0x93A97B5DCF9198FE89DFC14D3A8D9C67)
Complete name : E:Dead.Poets.Society.1989.x264.BDRip.1080p.mkv
Format : Matroska
Format version : Version 2
File size : 11.5 GiB
Duration : 2h 10mn
Overall bit rate : 12.7 Mbps
Encoded date : UTC 2013-12-29 10:38:31
Writing application : mkvmerge v5.8.0 ('No Sleep / Pillow') built on Sep 2 2012 15:37:04
Writing library : libebml v1.2.3 + libmatroska v1.3.0

Video
ID : 1
Format : AVC
Format/Info : Advanced Video Codec
Format profile : High@L4.1
Format settings, CABAC : Yes
Format settings, ReFrames : 4 frames
Codec ID : V_MPEG4/ISO/AVC
Duration : 2h 10mn
Bit rate : 10.7 Mbps
Width : 1 920 pixels
Height : 1 040 pixels
Display aspect ratio : 1.85:1
Frame rate mode : Constant
Frame rate : 23.976 fps
Color space : YUV
Chroma subsampling : 4:2:0
Bit depth : 8 bits
Scan type : Progressive
Bits/(Pixel*Frame) : 0.224
Stream size : 9.43 GiB (82%)
Writing library : x264 core 140 r2377 1ca7bb9
Encoding settings : cabac=1 / ref=4 / deblock=1:-1:-1 / analyse=0x3:0x133 / me=tesa / subme=11 / psy=1 / psy_rd=1.00:0.00 / mixed_ref=1 / me_range=32 / chroma_me=1 / trellis=2 / 8x8dct=1 / cqm=0 / deadzone=21,11 / fast_pskip=0 / chroma_qp_offset=-2 / threads=12 / lookahead_threads=3 / sliced_threads=0 / nr=0 / decimate=0 / interlaced=0 / bluray_compat=0 / constrained_intra=0 / bframes=10 / b_pyramid=2 / b_adapt=2 / b_bias=0 / direct=3 / weightb=0 / open_gop=0 / weightp=2 / keyint=240 / keyint_min=23 / scenecut=40 / intra_refresh=0 / rc=2pass / mbtree=0 / bitrate=10746 / ratetol=1.0 / qcomp=0.60 / qpmin=0 / qpmax=69 / qpstep=4 / cplxblur=20.0 / qblur=0.5 / ip_ratio=1.40 / pb_ratio=1.30 / aq=1:1.00
Language : English
Default : Yes
Forced : No

Audio #1
ID : 2
Format : AC-3
Format/Info : Audio Coding 3
Mode extension : CM (complete main)
Format settings, Endianness : Big
Codec ID : A_AC3
Duration : 2h 10mn
Bit rate mode : Constant
Bit rate : 192 Kbps
Channel count : 2 channels
Channel positions : Front: L R
Sampling rate : 48.0 KHz
Bit depth : 16 bits
Compression mode : Lossy
Stream size : 179 MiB (2%)
Title : Дубляж, СВ-Дубль, телеканал Россия
Language : Russian
Default : Yes
Forced : No

Audio #2
ID : 3
Format : AC-3
Format/Info : Audio Coding 3
Mode extension : CM (complete main)
Format settings, Endianness : Big
Codec ID : A_AC3
Duration : 2h 10mn
Bit rate mode : Constant
Bit rate : 640 Kbps
Channel count : 6 channels
Channel positions : Front: L C R, Side: L R, LFE
Sampling rate : 48.0 KHz
Bit depth : 16 bits
Compression mode : Lossy
Stream size : 596 MiB (5%)
Title : Многоголосый
Language : Russian
Default : No
Forced : No

Audio #3
ID : 4
Format : AC-3
Format/Info : Audio Coding 3
Mode extension : CM (complete main)
Format settings, Endianness : Big
Codec ID : A_AC3
Duration : 2h 10mn
Bit rate mode : Constant
Bit rate : 192 Kbps
Channel count : 2 channels
Channel positions : Front: L R
Sampling rate : 48.0 KHz
Bit depth : 16 bits
Compression mode : Lossy
Stream size : 179 MiB (2%)
Title : Двухголосый, R5
Language : Russian
Default : No
Forced : No

Audio #4
ID : 5
Format : AC-3
Format/Info : Audio Coding 3
Mode extension : CM (complete main)
Format settings, Endianness : Big
Codec ID : A_AC3
Duration : 2h 10mn
Bit rate mode : Constant
Bit rate : 384 Kbps
Channel count : 6 channels
Channel positions : Front: L C R, Side: L R, LFE
Sampling rate : 48.0 KHz
Bit depth : 16 bits
Compression mode : Lossy
Stream size : 357 MiB (3%)
Title : Авторский, А. Михалёв
Language : Russian
Default : No
Forced : No

Audio #5
ID : 6
Format : AC-3
Format/Info : Audio Coding 3
Mode extension : CM (complete main)
Format settings, Endianness : Big
Codec ID : A_AC3
Duration : 2h 10mn
Bit rate mode : Constant
Bit rate : 640 Kbps
Channel count : 6 channels
Channel positions : Front: L C R, Side: L R, LFE
Sampling rate : 48.0 KHz
Bit depth : 16 bits
Compression mode : Lossy
Stream size : 596 MiB (5%)
Title : Оригинал, Английский
Language : English
Default : No
Forced : No

Text #1
ID : 7
Format : UTF-8
Codec ID : S_TEXT/UTF8
Codec ID/Info : UTF-8 Plain Text
Title : Форсированные
Language : Russian
Default : Yes
Forced : No

Text #2
ID : 8
Format : UTF-8
Codec ID : S_TEXT/UTF8
Codec ID/Info : UTF-8 Plain Text
Title : Полные
Language : Russian
Default : No
Forced : No

Text #3
ID : 9
Format : UTF-8
Codec ID : S_TEXT/UTF8
Codec ID/Info : UTF-8 Plain Text
Title : SDH
Language : Russian
Default : No
Forced : No

Text #4
ID : 10
Format : UTF-8
Codec ID : S_TEXT/UTF8
Codec ID/Info : UTF-8 Plain Text
Title : SDH
Language : English
Default : No
Forced : No

Menu
00:00:00.000 : en:Opening Titles / A New Semester
00:11:17.635 : en:Seize The Day
00:21:03.637 : en:Understanding Poetry
00:36:09.501 : en:The Reconvening Of The Dead Poets Society
00:42:59.118 : en:A Different Perspective
00:50:28.442 : en:Chances
01:03:38.189 : en:Find Your Own Walk
01:11:33.414 : en:Unorthodox Ideas
01:23:53.153 : en:Neils's Dream
02:00:07.575 : en:"Oh Captain, My Captain" / End Credits



   Похожие торренты   Торрент   Размер 
В этой теме нет новых непрочитанных сообщений. Общество мертвых поэтов / Dead Poets Society (1989) BDRip 1080p

492 | 10

3.36 ГБ

В этой теме нет новых непрочитанных сообщений. Общество мертвых поэтов / Dead Poets Society (1989) BDRip 1080p 60FPS by ZHz

41 | 18

12.96 ГБ

В этой теме нет новых непрочитанных сообщений. Общество мертвых поэтов / Dead Poets Society (1989) BDRip от HQ-ViDEO

76 | 6

2.17 ГБ

В этой теме нет новых непрочитанных сообщений. Общество мертвых поэтов / Dead Poets Society (1989) BDRip 720p

19 | 2

9.06 ГБ

В этой теме нет новых непрочитанных сообщений. Общество мертвых поэтов / Dead Poets Society (1989) BDRip от HQCLUB

26 | 3

2.18 ГБ

В этой теме нет новых непрочитанных сообщений. Общество мертвых поэтов / Dead Poets Society (1989) BDRip от HQ-ViDEO

99 | 4

2.17 ГБ

В этой теме нет новых непрочитанных сообщений. Общество мертвых поэтов / Dead Poets Society (1989) BDRip от HELLYWOOD

120 | 9

2.18 ГБ




Вы не можете начинать темы
Вы не можете отвечать на сообщения
Вы не можете редактировать свои сообщения
Вы не можете удалять свои сообщения
Вы не можете добавлять вложения

Перейти:  
Для Мосгорсуда, Роскомнадзора и рекламодателей: mosgorsud-torrent[собачка]yandex.ru
 Вход
ppkBB3cker v.2 © 2008-2014 @ PPK
[ Time : 0.075s | 18 Queries | GZIP : Off ]

Торрент трекер RUTOR.IN, Не можете зайти на rutor.org? Какой новый адрес рутор? Какое зеркало рутор? Не работает rutor.org и зеркала? Тогда наш торрент специально для вас. Rutor.in неофициальное зеркало rutor. В случае если у Вас заблокирован rutor или вдруг Вы не можете на него зайти, то Вы без труда сможете скачать бесплатно и без рекламы последние новинки кино, игр, сериалов и прочего у нас, на Rutor.in. Не нужно использовать прокси, чтобы зайти на рутор, достаточно воспользоваться нашим ресурсом. Все новые фильмы, игры, сериалы, книги и музыка за 2013 и 2014 годы через торрент бесплатно. Скачивайте фильмы в хорошем качестве, игры для пк, xbox, playstation без регистрации. У нас вы найдете новые Зарубежные сериалы и Русские сериалы 2013, 2014, 2015 годов. Оставайтесь с нами, качайте любимые фильмы, игры, сериалы, книги и музыку.
cron