img image001 image001 image001 image001 image001 image001 image001 image001 image001 image001 image001 image001 image001 image001 image001 image001

Planets Sun Sun Sun
Статистика раздачи
Автор: PriZraK | Размер: 744.65 МБ | Добавлен: 13 фев 2014
Раздают: 277    Качают: 10
Скачать торрент
Скачать торрент
Описание торрента

СообщениеДобавлено: 13 фев 2014 



АНОНСЫ МОИХ РИПОВ! Подписываемся!


Шоу Трумана / The Truman Show

#77
Год выпуска:1998
Страна: США
Жанр: драма, антиутопия
Продолжительность: 01:42:56
Перевод: Профессиональный (многоголосный закадровый) - «Позитив-Мультимедиа»
Русские субтитры: нет

Режиссер: Питер Уир / Peter Weir

В ролях: Джим Керри /Jim Carrey/, Лора Линни /Laura Linney/, Ноа Эммерик /Noah Emmerich/, Наташа МакЭлхоун /Natascha McElhone/, Холланд Тейлор /Holland Taylor/, Брайан Дилейт /Brian Delate/, Блэр Слэйтер /Blair Slater/, Питер Краузе /Peter Krause/, Хайди Шанц /Heidi Schanz/, Рон Тейлор /Ron Taylor/

Описание: Труману /Джим Керри/ 29 лет, и всю свою жизнь он провел в маленьком, но милом городке. И можно сказать, что жизнь эта удалась: у него есть хорошая работа, добрая жена, преданный друг. Все, что нужно для счастья. Вот только с детства Труман мечтал быть первооткрывателем, исследователем, следопытом. Да что там - просто выехать куда-нибудь за пределы своего родного города, повидать мир! И решение в конце концов принято. Вот только какая-то невидимая, магическая сила удерживает его на месте, не дает вырваться на свободу. Труман еще не знает, что не имеет возможности покинуть свой родной город просто потому, что он - звезда, единственный _не_актер_ гигантского, круглосуточного сериала, который должен идти 24-е часа в сутки. И весь мир вокруг него - одна большая декорация, и люди (включая жену и лучшего друга) - просто актеры. Но время раскрывать секреты пришло, и упавший с неба осветительный прибор - только начало.



Качество: HDRip - Исходник BDRip 1080p
Формат: AVI
Видео кодек: XviD
Аудио кодек: MP3
Видео: 624x352 (1.77:1), 23.976 fps, XviD build 73 ~873 kbps avg, 0.17 bit/pixel
Аудио: 48 kHz, MPEG Layer 3, 2 ch, ~128.00 kbps avg

Раздача от:


D:Мои рипыThe.Truman.Show .1998.HDRip.745mb.dexter_lex.avi
General
Complete name : D:Мои рипыThe.Truman.Show .1998.HDRip.745mb.dexter_lex.avi
Format : AVI
Format/Info : Audio Video Interleave
File size : 745 MiB
Duration : 1h 42mn
Overall bit rate : 1 011 Kbps
Writing application : VirtualDubMod 1.5.10.3 | www.virtualdub-fr.org || (build 2550/release)
Writing library : VirtualDubMod build 2550/release
Video #0
ID : 0
Format : MPEG-4 Visual
Format profile : Advanced Simple@L5
Format settings, BVOP : 1
Format settings, QPel : No
Format settings, GMC : No warppoints
Format settings, Matrix : Custom
Codec ID : XVID
Codec ID/Hint : XviD
Duration : 1h 42mn
Bit rate : 874 Kbps
Width : 624 pixels
Height : 352 pixels
Display aspect ratio : 16:9
Frame rate : 23.976 fps
Color space : YUV
Chroma subsampling : 4:2:0
Bit depth : 8 bits
Scan type : Progressive
Compression mode : Lossy
Bits/(Pixel*Frame) : 0.166
Stream size : 644 MiB (86%)
Writing library : XviD 73
Audio #1
ID : 1
Format : MPEG Audio
Format version : Version 1
Format profile : Layer 3
Codec ID : 55
Codec ID/Hint : MP3
Duration : 1h 42mn
Bit rate mode : Constant
Bit rate : 128 Kbps
Channel(s) : 2 channels
Sampling rate : 48.0 KHz
Compression mode : Lossy
Stream size : 94.3 MiB (13%)
Alignment : Aligned on interleaves
Interleave, duration : 42 ms (1.00 video frame)
Interleave, preload duration : 504 ms
Writing library : LAME3.99r
Encoding settings : -m s -V 4 -q 2 -lowpass 17 -b 128




   Похожие торренты   Торрент   Размер 
В этой теме нет новых непрочитанных сообщений. Шоу Трумана / The Truman Show (1998) HDRip от New-Team

541 | 45

1.46 ГБ

В этой теме нет новых непрочитанных сообщений. Шоу Трумана / The Truman Show (1998) HDRip от MediaClub | КПК

99 | 20

464.77 МБ

В этой теме нет новых непрочитанных сообщений. Шоу Трумана / The Truman Show (1998) BDRip-AVC | P

0 | 0

1.46 ГБ

В этой теме нет новых непрочитанных сообщений. The Australian Pink Floyd Show - Everything Under The Sun [Tribute Show 2016] (2017) HDRip от Лумина

25 | 2

1.99 ГБ

В этой теме нет новых непрочитанных сообщений. Покажи мне любовь / Show Me Love / Fucking Åmål (1998) DVD5

105 | 9

4.36 ГБ

В этой теме нет новых непрочитанных сообщений. Покажи мне любовь / Show Me Love / Fucking Åmål (1998) DVD9 | P, P2 | Custom

0 | 0

5.95 ГБ

В этой теме нет новых непрочитанных сообщений. Martin Darvill And Friends - The Greatest Show On Earth (1998) MP3 от BestSound ExKinoRay

3 | 3

157.49 МБ




Вы не можете начинать темы
Вы не можете отвечать на сообщения
Вы не можете редактировать свои сообщения
Вы не можете удалять свои сообщения
Вы не можете добавлять вложения

Перейти:  
 Вход
ppkBB3cker v.2 © 2008-2014 @ PPK
[ Time : 0.035s | 18 Queries | GZIP : Off ]

cron