img image001 image001 image001 image001 image001 image001 image001 image001 image001 image001 image001 image001 image001 image001 image001

Planets Sun Sun Sun
Статистика раздачи
Автор: PriZraK | Размер: 6.44 ГБ | Добавлен: 13 фев 2014
Раздают: 0    Качают: 1
Скачать торрент
Скачать торрент
Описание торрента

СообщениеДобавлено: 13 фев 2014 




Информация о фильме
Название: Жена летчика
Оригинальное название: La femme de l'aviateur
Год выхода: 1980
Жанр: драма
Режиссер: Эрик Ромер / Eric Rohmer
В ролях: Филипп Марло, Мари Ривьер, Анн-Лор Мери, Матье Каррьер, Филипп Каруа, Корали Клеман, Мария Луиза Гарсиа

О фильме:
Франсуа любит Анну. Поскольку он работает по ночам, им трудно встретиться. Однажды утром, когда он спешил к ней, он увидел Анну с ее бывшим возлюбленным Кристианом. Анна не отвечает на его вопросы и оставляет Франсуа во власти своего ревнивого воображения. Преследуемый страхом быть обманутым, Антуан решает не спать. Он бродит грустно по парижским улицам, и на террасе одного кафе замечает своего соперника в обществе светловолосой женщины. Заинтригованный, он следует за ними...

Это первая история из цикла Комедии и поговорки Эрика Ромера.

Страна: Франция
Студия: Les Films du Losange
Продолжительность: 01:41:55.131
Перевод: Профессиональный (двухголосый закадровый) R5 "Видеоимпульс"

Файл
Кодек: h.264
Качество: BDRip 720p
Видео: 1192x720 (1.656), 25.000 fps, AVC, ~8395 Kbps, 0.391 bits/pixel
Звук:
Французский, 48.0 KHz, AC3, 1 ch, 384 Kbps
Русский, 48.0 KHz, AC3, 1 ch, 256 Kbps
Субтитры:
Английские, PGS
Русские, SRT(UTF-8)

Общее
Уникальный идентификатор : 207701063988145500907973773225440054381 (0x9C41C515A61DCAEC89C5B12F0AF00C6D)
Полное имя : D:FilmsZhena_letchika.1980.BDRip720p.mkv
Формат : Matroska
Версия формата : Version 4 / Version 2
Размер файла : 6,44 Гбайт
Продолжительность : 1 ч. 41 м.
Общий поток : 9046 Кбит/сек
Дата кодирования : UTC 2014-01-11 13:01:25
Программа кодирования : mkvmerge v6.7.0 ('Back to the Ground') 64bit built on Jan 8 2014 15:10:52
Библиотека кодирования : libebml v1.3.0 + libmatroska v1.4.1

Видео
Идентификатор : 1
Формат : AVC
Формат/Информация : Advanced Video Codec
Профиль формата : High@L4.1
Параметр CABAC формата : Да
Параметр ReFrames формата : 9 кадров
Идентификатор кодека : V_MPEG4/ISO/AVC
Продолжительность : 1 ч. 41 м.
Битрейт : 8395 Кбит/сек
Ширина : 1192 пикселя
Высота : 720 пикселей
Соотношение сторон : 1,656
Режим частоты кадров : Постоянный
Частота кадров : 25,000 кадров/сек
Цветовое пространство : YUV
Субдискретизация насыщенности : 4:2:0
Битовая глубина : 8 бит
Тип развёртки : Прогрессивная
Бит/(Пиксели*Кадры) : 0.391
Размер потока : 5,86 Гбайт (91%)
Библиотека кодирования : x264 core 138 r2358 9e941d1
Настройки программы : cabac=1 / ref=9 / deblock=1:-3:-3 / analyse=0x3:0x133 / me=umh / subme=10 / psy=1 / psy_rd=1.10:0.10 / mixed_ref=1 / me_range=32 / chroma_me=1 / trellis=2 / 8x8dct=1 / cqm=0 / deadzone=21,11 / fast_pskip=0 / chroma_qp_offset=-3 / threads=8 / lookahead_threads=2 / sliced_threads=0 / nr=0 / decimate=0 / interlaced=0 / bluray_compat=0 / constrained_intra=0 / bframes=13 / b_pyramid=2 / b_adapt=2 / b_bias=0 / direct=3 / weightb=1 / open_gop=0 / weightp=2 / keyint=250 / keyint_min=25 / scenecut=40 / intra_refresh=0 / rc_lookahead=60 / rc=2pass / mbtree=0 / bitrate=8395 / ratetol=1.0 / qcomp=0.60 / qpmin=0 / qpmax=60 / qpstep=4 / cplxblur=20.0 / qblur=0.5 / vbv_maxrate=50000 / vbv_bufsize=62500 / nal_hrd=none / ip_ratio=1.40 / pb_ratio=1.30 / aq=2:1.00
Default : Нет
Forced : Нет
Основные цвета : BT.709
Характеристики трансфера : BT.709
Коэффициенты матрицы : BT.709

Аудио #1
Идентификатор : 2
Формат : AC-3
Формат/Информация : Audio Coding 3
Расширение режима : CM (complete main)
Параметр Endianness формата : Big
Идентификатор кодека : A_AC3
Продолжительность : 1 ч. 41 м.
Вид битрейта : Постоянный
Битрейт : 384 Кбит/сек
Каналы : 1 канал
Расположение каналов : Front: C
Частота : 48,0 КГц
Битовая глубина : 16 бит
Метод сжатия : С потерями
Задержка видео : 27 мс.
Размер потока : 280 Мбайт (4%)
Язык : French
Default : Нет
Forced : Нет

Аудио #2
Идентификатор : 3
Формат : AC-3
Формат/Информация : Audio Coding 3
Расширение режима : CM (complete main)
Параметр Endianness формата : Big
Идентификатор кодека : A_AC3
Продолжительность : 1 ч. 41 м.
Вид битрейта : Постоянный
Битрейт : 256 Кбит/сек
Каналы : 1 канал
Расположение каналов : Front: C
Частота : 48,0 КГц
Битовая глубина : 16 бит
Метод сжатия : С потерями
Задержка видео : 27 мс.
Размер потока : 187 Мбайт (3%)
Язык : Russian
Default : Да
Forced : Нет

Текст #1
Идентификатор : 4
Формат : PGS
Режим смешивания : zlib
Идентификатор кодека : S_HDMV/PGS
Идентификатор кодека/Информация : The same subtitle format used on BDs/HD-DVDs
Язык : English
Default : Нет
Forced : Нет

Текст #2
Идентификатор : 5
Формат : UTF-8
Идентификатор кодека : S_TEXT/UTF8
Идентификатор кодека/Информация : UTF-8 Plain Text
Язык : Russian
Default : Нет
Forced : Нет

Меню
00:00:00.000 : en:00:00:00.000
00:06:14.880 : en:00:06:14.880
00:15:31.200 : en:00:15:31.200
00:24:57.480 : en:00:24:57.480
00:30:23.040 : en:00:30:23.040
00:51:42.840 : en:00:51:42.840
01:07:36.920 : en:01:07:36.920
01:10:11.160 : en:01:10:11.160
01:23:10.440 : en:01:23:10.440
01:37:17.960 : en:01:37:17.960


Исходный BD невысокого качества (PAL источник 25 fps, но лучше всех DVD изданий этого фильма) + синхр. дорожка от издания "Видеоимпульс"+ синхронизированы по речи русские титры. Шумоподавление видео при создании релиза не применялось.


Исходный BD1080i
http://www.dvdbeaver.com/film/dvdcompare2/aviatorswife.htm

frame I:710 Avg QP:17.95 size:129101
frame P:29046 Avg QP:20.59 size: 68811
frame B:123115 Avg QP:22.56 size: 35126


Семпл

BDRip 720p
BD 1080i


Релиз от: Temperest



   Похожие торренты   Торрент   Размер 
В этой теме нет новых непрочитанных сообщений. Жена лётчика / La femme de l'aviateur (1981) BDRip by msltel | P2

31 | 17

1.75 ГБ

В этой теме нет новых непрочитанных сообщений. Жена лётчика / La femme de l'aviateur (1981) BDRip 1080p by msltel | P2

40 | 18

11.37 ГБ

В этой теме нет новых непрочитанных сообщений. Нижинский / Nijinsky (1980) BDRip 720p от Temperest

32 | 11

6.64 ГБ

В этой теме нет новых непрочитанных сообщений. Папа, мама, моя жена и я / Papa, maman, ma femme et moi... (1955) BDRip от HQCLUB | A

51 | 13

1.45 ГБ

В этой теме нет новых непрочитанных сообщений. Последняя жена Синей Бороды / La dernière femme de Barbe Bleue (1996) WEBRip 720p

23 | 24

399.22 МБ

В этой теме нет новых непрочитанных сообщений. Моя жена - актриса / Ma femme est une actrice (2001) DVDRip-AVC | P

126 | 36

1.94 ГБ

В этой теме нет новых непрочитанных сообщений. Жена Жиля / La femme de Gilles (2004) DVDRip | P1

103 | 10

704.88 МБ




Вы не можете начинать темы
Вы не можете отвечать на сообщения
Вы не можете редактировать свои сообщения
Вы не можете удалять свои сообщения
Вы не можете добавлять вложения

Перейти:  
Для Мосгорсуда, Роскомнадзора и рекламодателей: mosgorsud-torrent[собачка]yandex.ru
 Вход
ppkBB3cker v.2 © 2008-2014 @ PPK
[ Time : 0.053s | 16 Queries | GZIP : Off ]

cron