img image001 image001 image001 image001 image001 image001 image001 image001 image001 image001 image001 image001 image001 image001 image001 image001

Planets Sun Sun Sun
Статистика раздачи
Автор: PriZraK | Размер: 2.81 ГБ | Добавлен: 13 фев 2014
Раздают: 1    Качают: 2
Скачать торрент
Скачать торрент
Описание торрента

СообщениеДобавлено: 13 фев 2014 




Информация о фильме
Название: Медведь
Оригинальное название: Ursul
Год выхода: 2011
Жанр: Комедия
Режиссер: Дан Кишу
В ролях: Шербан Павлу, Клаудиу Блеонц, Габриэль Спайю, Михай Константин, Магда Катоне, Андреа Грамостену, Шербан Челя, Тома Кузин, Раду Гэбриел, Эксел Мусташ

О фильме:
Государственный цирк на грани банкротства. Чтобы выйти из положения, директор решает продать единственного «заслуженного» медведя. Но труппа против такого шага, и тогда директор крадет животное: на медведя есть «покупатель» — немецкий охотник.


Страна: Румыния
Студия: DaKINO Production, Hai Hui Entertainement, Libra Film
Продолжительность: 01:19:57
Перевод: Профессиональный двухголосый (НТВ+)

Файл
Кодек: MPEG-4 AVC
Качество: HDTVRip 720p
Видео: 4400 Кбит/с, 1280x696, 25.000 кадр/с
Звук:
Аудио #1: Русский (АС3, 2 ch, 448 Кбит/с)
Аудио #2: Румынский (AC3, 2 ch, 192 Кбит/с)

Семпл


Общее
Полное имя : Medved.2011.x264.HDTVRip(720p).MediaClub.mkv
Формат : Matroska
Версия формата : Version 2
Размер файла : 2,81 Гбайт
Продолжительность : 1 ч. 19 м.
Общий поток : 5040 Кбит/сек
Дата кодирования : UTC 2014-01-11 20:04:56
Программа кодирования : mkvmerge v5.4.0 ('Piper') built on Mar 10 2012 13:34:39
Библиотека кодирования : libebml v1.2.3 + libmatroska v1.3.0

Видео
Идентификатор : 1
Формат : AVC
Формат/Информация : Advanced Video Codec
Профиль формата : High@L4.1
Параметр CABAC формата : Да
Параметр ReFrames формата : 9 кадров
Идентификатор кодека : V_MPEG4/ISO/AVC
Продолжительность : 1 ч. 19 м.
Битрейт : 4400 Кбит/сек
Ширина : 1280 пикселей
Высота : 696 пикселей
Соотношение сторон : 1,85:1
Режим частоты кадров : Постоянный
Частота кадров : 25,000 кадров/сек
Цветовое пространство : YUV
Субдискретизация насыщенности : 4:2:0
Битовая глубина : 8 бит
Тип развёртки : Прогрессивная
Бит/(Пиксели*Кадры) : 0.198
Размер потока : 2,40 Гбайт (85%)
Библиотека кодирования : x264 core 125 r2208 d9d2288
Настройки программы : cabac=1 / ref=9 / deblock=1:-2:-2 / analyse=0x3:0x133 / me=umh / subme=10 / psy=1 / psy_rd=1.00:0.15 / mixed_ref=1 / me_range=32 / chroma_me=1 / trellis=2 / 8x8dct=1 / cqm=0 / deadzone=21,11 / fast_pskip=0 / chroma_qp_offset=-3 / threads=6 / lookahead_threads=1 / sliced_threads=0 / nr=0 / decimate=0 / interlaced=0 / bluray_compat=0 / constrained_intra=0 / bframes=8 / b_pyramid=2 / b_adapt=2 / b_bias=0 / direct=3 / weightb=1 / open_gop=0 / weightp=2 / keyint=250 / keyint_min=25 / scenecut=40 / intra_refresh=0 / rc=2pass / mbtree=0 / bitrate=4400 / ratetol=1.0 / qcomp=0.60 / qpmin=0 / qpmax=69 / qpstep=4 / cplxblur=20.0 / qblur=0.5 / ip_ratio=1.40 / pb_ratio=1.30 / aq=1:0.80
Default : Да
Forced : Нет

Аудио #1
Идентификатор : 2
Формат : AC-3
Формат/Информация : Audio Coding 3
Расширение режима : CM (complete main)
Параметр Endianness формата : Big
Идентификатор кодека : A_AC3
Продолжительность : 1 ч. 19 м.
Вид битрейта : Постоянный
Битрейт : 448 Кбит/сек
Каналы : 2 канала
Расположение каналов : Front: L R
Частота : 48,0 КГц
Битовая глубина : 16 бит
Метод сжатия : С потерями
Размер потока : 256 Мбайт (9%)
Язык : Russian
Default : Да
Forced : Нет

Аудио #2
Идентификатор : 3
Формат : AC-3
Формат/Информация : Audio Coding 3
Расширение режима : CM (complete main)
Параметр Endianness формата : Big
Идентификатор кодека : A_AC3
Продолжительность : 1 ч. 19 м.
Вид битрейта : Постоянный
Битрейт : 192 Кбит/сек
Каналы : 2 канала
Расположение каналов : Front: L R
Частота : 48,0 КГц
Битовая глубина : 16 бит
Метод сжатия : С потерями
Задержка видео : 7 с. 0 мс.
Размер потока : 110 Мбайт (4%)
Заголовок : Румынский
Default : Нет
Forced : Нет


Релиз от:



   Похожие торренты   Торрент   Размер 
В этой теме нет новых непрочитанных сообщений. Медведь / Ursul (2011) HDTVRip-AVC от MediaClub | P2

0 | 2

1.79 ГБ

В этой теме нет новых непрочитанных сообщений. Медведь / Ursul (2011) DVDRip от CINEMANIA | НТВ+

6 | 3

1.37 ГБ

В этой теме нет новых непрочитанных сообщений. Барби и медведь [01 из 02] (2014) HDTVRip 720p от MediaClub

139 | 35

7.39 ГБ

В этой теме нет новых непрочитанных сообщений. Маша и Медведь. Пещерный медведь [48] (2015) WEB-DL 720p

17357 | 1915

100.22 МБ

В этой теме нет новых непрочитанных сообщений. Медведь / Bear (2011) WEBRip 720p | Точка Zрения

186 | 17

122.46 МБ

В этой теме нет новых непрочитанных сообщений. Участковый [01-02 из 24] (2011) HDTVRip 720p от MediaClub

5 | 1

4.86 ГБ

В этой теме нет новых непрочитанных сообщений. Участковый [01-02 из 24] (2011) HDTVRip 720p от MediaClub

24 | 2

2.43 ГБ




Вы не можете начинать темы
Вы не можете отвечать на сообщения
Вы не можете редактировать свои сообщения
Вы не можете удалять свои сообщения
Вы не можете добавлять вложения

Перейти:  
 Вход
ppkBB3cker v.2 © 2008-2014 @ PPK
[ Time : 0.033s | 16 Queries | GZIP : Off ]

cron