img image001 image001 image001 image001 image001 image001 image001 image001 image001 image001 image001 image001 image001 image001 image001 image001

Planets Sun Sun Sun
Статистика раздачи
Автор: PriZraK | Размер: 1.45 ГБ | Добавлен: 13 фев 2014
Раздают: 16    Качают: 4
Скачать торрент
Скачать торрент
Описание торрента

СообщениеДобавлено: 13 фев 2014 




Страна: Испания, США
Жанр: ужасы, комедия, приключения
Год выпуска: 1981
Продолжительность: 01:44:44

Перевод: Профессиональный (полное дублирование)[в вырезанных местах - многоголосый] + Профессиональный (многоголосый, закадровый) + Английский
Субтитры: русские,английские.


Режиссер: Хуан Пике Симон / Juan Piquer Simón


В ролях: Теренс Стэмп (Taskinar / Skinner), Питер Кушинг (William T. Kolderup), Иэн Сера (Jeff Morgan), Дэвид Хэттон (Thomas Artelect), Гасфар Ипуа (Carefinatu), Бланка Эстрада (Dominique Blanchard), Ана Обрегон (Meg Hollaney / Meg Calderón), Франк Бранья (Birling), Пол Нэши (Flynt), Жерар Тиши (Capt. Turkott), Мануэль Перейро, Даниэль Мартин
Дублёры: Валентин Черняк, Виталий Дорошенко, Владимир Коршун, Владимир Шныпарь, Владислав Пупков, Геннадий Болотов, Светлана Кондратова


Описание: Экранизация повести Жюля Верна "Школа Робинзонов". Джефф Морган, живущий в Сан-Франциско молодой европеец, собирается женится на очаровательной Мэг, дочери богатого предпринимателя Вильяма Колдерапа, однако прежде юноша желает увидеть мир, отправившись в далекое путешествие. Дядя Вильям идет ему навстречу и снаряжает для этой цели свой корабль "Мечта". После недолгого плаванья, загадочное проишествие заставляет Джеффа покинуть судно. В паре с чудоковатым учителем танцев, Томасом Артилектом, он оказывается на небольшом острове посреди океана. Встреча с людоедами и чудовищными монстрами, битва с коварными золотоискателями и встреча с прекрасной незнакомкой, это и многое другое предстоит пережить юному путешественнику, прежде, чем выяснится истинная причина его злоключений. Удастся ли им спастись? Или загадка острова Чудовищ так и останется неразгаданной…






Семпл


Качество: DVDRip (DVD [Custom] | dvdbox)
Контейнер: MKV

Видео: AVC, 672x480 @ 796х480 (1.658), 1400 kbps, 23,976 fps, 0,181 bpp
Аудио №1: русский / AC3 / 2.0 / 48 kHz / 192 kbps
Аудио №2: русский / AC3 / 2.0 / 48 kHz / 192 kbps
Аудио №3: английский / AC3 / 2.0 / 48 kHz / 192 kbps
Навигация по главам: есть


Формат : Matroska
Версия формата : Version 2
Размер файла : 1,45 Гбайт
Продолжительность : 1 ч. 44 м.
Общий поток : 1978 Кбит/сек
Название фильма : = Тайна острова чудовищ / Загадка острова сокровищ / Mystery on Monster Island DVDRip by SC Kosmos =
Дата кодирования : UTC 2014-01-13 11:24:50
Программа кодирования : mkvmerge v3.3.0 ('Language') gebaut am Mar 24 2010 14:59:24
Библиотека кодирования : libebml v0.8.0 + libmatroska v0.9.0

Видео
Идентификатор : 1
Формат : AVC
Формат/Информация : Advanced Video Codec
Профиль формата : High@L4.1
Параметр CABAC формата : Да
Параметр ReFrames формата : 12 кадров
Идентификатор кодека : V_MPEG4/ISO/AVC
Продолжительность : 1 ч. 44 м.
Битрейт : 1400 Кбит/сек
Ширина : 672 пикселя
Высота : 480 пикселей
Соотношение сторон : 1,658
Соотношение сторон в оригинале : 1,659
Режим частоты кадров : Постоянный
Частота кадров : 23,976 кадра/сек
Цветовое пространство : YUV
Субдискретизация насыщенности : 4:2:0
Битовая глубина : 8 бит
Тип развёртки : Прогрессивная
Бит/(Пиксели*Кадры) : 0.181
Размер потока : 1020 Мбайт (69%)
Заголовок : Тайна острова чудовищ / Загадка острова сокровищ / Mystery on Monster Island DVDRip by SC Kosmos
Библиотека кодирования : x264 core 138 r2358 9e941d1
Настройки программы : cabac=1 / ref=12 / deblock=1:-2:-2 / analyse=0x3:0x113 / me=umh / subme=11 / psy=1 / psy_rd=1.00:0.00 / mixed_ref=1 / me_range=48 / chroma_me=1 / trellis=2 / 8x8dct=1 / cqm=0 / deadzone=21,11 / fast_pskip=0 / chroma_qp_offset=-2 / threads=12 / lookahead_threads=1 / sliced_threads=0 / nr=0 / decimate=1 / interlaced=0 / bluray_compat=0 / constrained_intra=0 / bframes=12 / b_pyramid=2 / b_adapt=1 / b_bias=0 / direct=1 / weightb=1 / open_gop=0 / weightp=2 / keyint=240 / keyint_min=23 / scenecut=40 / intra_refresh=0 / rc_lookahead=40 / rc=2pass / mbtree=0 / bitrate=1400 / ratetol=1.0 / qcomp=0.60 / qpmin=0 / qpmax=69 / qpstep=4 / cplxblur=20.0 / qblur=0.5 / vbv_maxrate=50000 / vbv_bufsize=50000 / nal_hrd=none / ip_ratio=1.40 / pb_ratio=1.30 / aq=1:1.00
Язык : English
Default : Нет
Forced : Нет

Аудио #1
Идентификатор : 2
Формат : AC-3
Формат/Информация : Audio Coding 3
Расширение режима : CM (complete main)
Параметр Endianness формата : Big
Идентификатор кодека : A_AC3
Продолжительность : 1 ч. 44 м.
Вид битрейта : Постоянный
Битрейт : 192 Кбит/сек
Каналы : 2 канала
Расположение каналов : Front: L R
Частота : 48,0 КГц
Битовая глубина : 16 бит
Метод сжатия : С потерями
Размер потока : 144 Мбайт (10%)
Заголовок : Дубляж
Язык : Russian
Default : Да
Forced : Нет

Аудио #2
Идентификатор : 3
Формат : AC-3
Формат/Информация : Audio Coding 3
Расширение режима : CM (complete main)
Параметр Endianness формата : Big
Идентификатор кодека : A_AC3
Продолжительность : 1 ч. 44 м.
Вид битрейта : Постоянный
Битрейт : 192 Кбит/сек
Каналы : 2 канала
Расположение каналов : Front: L R
Частота : 48,0 КГц
Битовая глубина : 16 бит
Метод сжатия : С потерями
Размер потока : 144 Мбайт (10%)
Заголовок : MVO
Язык : Russian
Default : Нет
Forced : Нет

Аудио #3
Идентификатор : 4
Формат : AC-3
Формат/Информация : Audio Coding 3
Расширение режима : CM (complete main)
Параметр Endianness формата : Big
Идентификатор кодека : A_AC3
Продолжительность : 1 ч. 44 м.
Вид битрейта : Постоянный
Битрейт : 192 Кбит/сек
Каналы : 2 канала
Расположение каналов : Front: L R
Частота : 48,0 КГц
Битовая глубина : 16 бит
Метод сжатия : С потерями
Размер потока : 144 Мбайт (10%)
Язык : English
Default : Нет
Forced : Нет

Текст #1
Идентификатор : 5
Формат : UTF-8
Идентификатор кодека : S_TEXT/UTF8
Идентификатор кодека/Информация : UTF-8 Plain Text
Язык : Russian
Default : Нет
Forced : Нет

Текст #2
Идентификатор : 6
Формат : UTF-8
Идентификатор кодека : S_TEXT/UTF8
Идентификатор кодека/Информация : UTF-8 Plain Text
Язык : English
Default : Да
Forced : Нет

Меню
00:00:00.000 : en:Chapter 01
00:04:53.868 : en:Chapter 02
00:09:36.168 : en:Chapter 03
00:13:26.668 : en:Chapter 04
00:18:03.035 : en:Chapter 05
00:23:36.836 : en:Chapter 06
00:27:33.036 : en:Chapter 07
00:32:38.870 : en:Chapter 08
00:40:51.003 : en:Chapter 09
00:46:26.003 : en:Chapter 10
00:51:17.704 : en:Chapter 11
00:56:13.338 : en:Chapter 12
00:59:56.705 : en:Chapter 13
01:01:24.539 : en:Chapter 14
01:03:12.006 : en:Chapter 15
01:06:23.840 : en:Chapter 16
01:12:04.174 : en:Chapter 17
01:16:31.841 : en:Chapter 18
01:19:58.542 : en:Chapter 19
01:24:05.510 : en:Chapter 20
01:28:20.344 : en:Chapter 21
01:31:38.844 : en:Chapter 22
01:35:18.178 : en:Chapter 23
01:37:29.512 : en:Chapter 24
01:44:37.779 : en:Chapter 25








   Похожие торренты   Торрент   Размер 
В этой теме нет новых непрочитанных сообщений. Тайна острова сокровищ / Five on a Treasure Island [s01] (1957) DVDRip-AVC | A

11 | 3

1.98 ГБ

В этой теме нет новых непрочитанных сообщений. Дикие острова: Невиданные острова / Unseen Islands (2015) HDTVRip 720p | P1

0 | 0

2.73 ГБ

В этой теме нет новых непрочитанных сообщений. Дикие острова: Невиданные острова / Unseen Islands [S01] (2015) HDTVRip от torrentfilm | Р1

133 | 7

999.33 МБ

В этой теме нет новых непрочитанных сообщений. Феи: Загадка пиратского острова / The Pirate Fairy (2014) BDRip 720p | Sub

16 | 1479

2.64 ГБ

В этой теме нет новых непрочитанных сообщений. Феи: Загадка пиратского острова / The Pirate Fairy (2014) BDRip 1080p

302 | 28

5.77 ГБ

В этой теме нет новых непрочитанных сообщений. Феи: Загадка пиратского острова / The Pirate Fairy (2014) HDRip | iTunes

798 | 83

1.37 ГБ

В этой теме нет новых непрочитанных сообщений. Три сыщика и тайна острова Скелетов / The Three Investigators and the Secret of Skeleton Island (2007) DVDRip | P

129 | 35

1.38 ГБ




Вы не можете начинать темы
Вы не можете отвечать на сообщения
Вы не можете редактировать свои сообщения
Вы не можете удалять свои сообщения
Вы не можете добавлять вложения

Перейти:  
 Вход
ppkBB3cker v.2 © 2008-2014 @ PPK
[ Time : 0.058s | 17 Queries | GZIP : Off ]

cron