img image001 image001 image001 image001 image001 image001 image001 image001 image001 image001 image001 image001 image001 image001 image001 image001

Planets Sun Sun Sun
Статистика раздачи
Автор: PriZraK | Размер: 1.79 ГБ | Добавлен: 13 фев 2014
Раздают: 17    Качают: 3
Скачать торрент
Скачать торрент
Описание торрента

СообщениеДобавлено: 13 фев 2014 


#77

Информация о фильме
Название: Приключения барона Мюнхаузена
Оригинальное название: The Adventures of Baron Munchausen
Год выхода: 1988
Жанр: фантастика, фэнтези, боевик, драма, комедия, приключения
Режиссер: Терри Гиллиам
В ролях: Джон Невилл, Эрик Айдл, Сара Полли, Оливер Рид, Чарльз МакКоуэн, Уинстон Дэннис, Джек Пёрвис, Валентина Кортезе, Джонатан Прайс, Билл Патерсон

О фильме:
Единственный, кто знает всю правду о Мюнхгаузене — сам барон. Легендарный герой рассказывает историю своих невероятных приключений.

Но неужели он действительно летал на раскаленном пушечном ядре, сражался с трехголовым грифоном, путешествовал на Луну, видел обнаженную Венеру, выходящую из морской раковины, и в конце концов, столкнулся нос к носу с самой Смертью? В это невозможно поверить… но разве знаменитый Мюнхгаузен может врать?



Страна: Великобритания, Италия
Продолжительность: 02:06:17
Перевод: Русский профессиональный многоголосый (R5), Русский профессиональный многоголосый (Позитив-мультимедиа), Украинский профессиональный многоголосый (Новый канал)

Файл
Кодек: H.264
Качество: HDRip Исходник: BDRip 720p
Видео: H.264, 640x460 (852х460 анаморф), ~1.86:1, 1500 Kbps, 23.976 fps
Звук:
Русская дорожка, AAC, 2 канала, 48.0 KHz, 128 Kbps, F L,R (R5)
Русская дорожка, AAC, 2 канала, 48.0 KHz, 128 Kbps, F L,R (Позитив-мультимедиа)
Украинская дорожка, AAC, 2 канала, 48.0 KHz, 128 Kbps, F L,R (Новый канал)
Английская дорожка, AAC, 2 канала, 48.0 KHz, 128 Kbps, F L,R

Код:
Media Type: Movie
XID: Apple:vendor_id:1988-tt0096764
Content ID: 544662500
ScreenWriters: Чарльз МакКоуэн, Терри Гиллиам, Готфрид Аугуст Бюргер
Producers: Томас Шюли, Рэй Купер, Джэйк Эбертс
Director: Терри Гиллиам
Cast: Джон Невилл, Эрик Айдл, Сара Полли, Оливер Рид, Чарльз МакКоуэн, Уинстон Дэннис, Джек Пёрвис, Валентина Кортезе, Джонатан Прайс, Билл Патерсон
Rating: PG
Long Deion: Единственный, кто знает всю правду о Мюнхгаузене — сам барон. Легендарный герой рассказывает историю своих невероятных приключений. Но неужели он действительно летал на раскаленном пушечном ядре, сражался с трехголовым грифоном, путешествовал на Луну, видел обнаженную Венеру, выходящую из морской раковины, и в конце концов, столкнулся нос к носу с самой Смертью? В это невозможно поверить… но разве знаменитый Мюнхгаузен может врать?
Deion: Единственный, кто знает всю правду о Мюнхгаузене — сам барон. Легендарный герой рассказывает историю своих невероятных приключений. Но неужели он действительно летал на раскаленном пушечном ядре, сражался с трехголовым грифоном, путешествовал на Луну
Release Date: 1988-12-08T07:00:00Z
Genre:  фантастика, фэнтези, боевик, драма, комедия, приключения
Artist: Терри Гиллиам
Name: Приключения барона Мюнхаузена
Код:
General
Complete name                            : C:UsersNarekDesktopThe Adventures of Baron Munchausen.mp4
Format                                   : MPEG-4
Format profile                           : Base Media
Codec ID                                 : isom
File size                                : 1.79 GiB
Duration                                 : 2h 6mn
Overall bit rate mode                    : Variable
Overall bit rate                         : 2 028 Kbps
Movie name                               : Приключения барона Мюнхаузена
Performer                                : Терри Гиллиам
Genre                                    :  фантастика, фэнтези, боевик, драма, комедия, приключения
ContentType                              : Short Film
Deion                              : Единственный, кто знает всю правду о Мюнхгаузене — сам барон. Легендарный герой рассказывает историю своих невероятных приключений. Но неужели он действительно летал на раскаленном пушечном ядре, сражался с трехголовым грифоном, путешествовал на Луну
Recorded date                            : UTC 1988-12-08 07:00:00
Encoded date                             : UTC 2014-01-18 18:21:30
Tagged date                              : UTC 2014-01-19 18:45:53
Writing application                      : MkvToMp4 [www.mkvtomp4.ru] version: 0.224 (x64)
Cover                                    : Yes
LongDeion                          : Единственный, кто знает всю правду о Мюнхгаузене — сам барон. Легендарный герой рассказывает историю своих невероятных приключений. Но неужели он действительно летал на раскаленном пушечном ядре, сражался с трехголовым грифоном, путешествовал на Луну, видел обнаженную Венеру, выходящую из морской раковины, и в конце концов, столкнулся нос к носу с самой Смертью? В это невозможно поверить… но разве знаменитый Мюнхгаузен может врать?
AppleStoreCatalogID                      : 544662500
Vendor                                   : Apple:vendor_id:1988-tt0096764
ContentRating                            : mpaa|PG|200|

Video
ID                                       : 1
Format                                   : AVC
Format/Info                              : Advanced Video Codec
Format profile                           : Baseline@L3.0
Format settings, CABAC                   : No
Format settings, ReFrames                : 3 frames
Codec ID                                 : avc1
Codec ID/Info                            : Advanced Video Coding
Duration                                 : 2h 6mn
Bit rate                                 : 1 500 Kbps
Maximum bit rate                         : 7 669 Kbps
Width                                    : 640 pixels
Height                                   : 460 pixels
Display aspect ratio                     : 1.85:1
Frame rate mode                          : Variable
Frame rate                               : 23.976 fps
Minimum frame rate                       : 23.810 fps
Maximum frame rate                       : 24.390 fps
Color space                              : YUV
Chroma subsampling                       : 4:2:0
Bit depth                                : 8 bits
Scan type                                : Progressive
Bits/(Pixel*Frame)                       : 0.213
Stream size                              : 1.32 GiB (74%)
Writing library                          : x264 core 130 r2273 b3065e6
Encoding settings                        : cabac=0 / ref=3 / deblock=1:-1:-1 / analyse=0x1:0x111 / me=umh / subme=9 / psy=1 / psy_rd=1.00:0.15 / mixed_ref=1 / me_range=16 / chroma_me=1 / trellis=1 / 8x8dct=0 / cqm=0 / deadzone=21,11 / fast_pskip=1 / chroma_qp_offset=-3 / threads=6 / lookahead_threads=1 / sliced_threads=0 / nr=0 / decimate=1 / interlaced=0 / bluray_compat=0 / constrained_intra=0 / bframes=0 / weightp=0 / keyint=240 / keyint_min=24 / scenecut=40 / intra_refresh=0 / rc_lookahead=40 / rc=2pass / mbtree=1 / bitrate=1500 / ratetol=1.0 / qcomp=0.60 / qpmin=0 / qpmax=69 / qpstep=4 / cplxblur=20.0 / qblur=0.5 / vbv_maxrate=5000 / vbv_bufsize=5000 / nal_hrd=none / ip_ratio=1.40 / aq=1:1.00
Encoded date                             : UTC 2014-01-19 14:35:25
Tagged date                              : UTC 2014-01-18 18:23:02
Color primaries                          : BT.709
Transfer characteristics                 : BT.709
Matrix coefficients                      : BT.709

Audio #1
ID                                       : 2
Format                                   : AAC
Format/Info                              : Advanced Audio Codec
Format profile                           : LC
Codec ID                                 : 40
Duration                                 : 2h 6mn
Bit rate mode                            : Variable
Bit rate                                 : 127 Kbps
Maximum bit rate                         : 258 Kbps
Channel(s)                               : 2 channels
Channel positions                        : Front: L R
Sampling rate                            : 48.0 KHz
Compression mode                         : Lossy
Stream size                              : 115 MiB (6%)
Language                                 : Russian
Encoded date                             : UTC 2014-01-18 18:22:34
Tagged date                              : UTC 2014-01-18 18:23:02

Audio #2
ID                                       : 3
Format                                   : AAC
Format/Info                              : Advanced Audio Codec
Format profile                           : LC
Codec ID                                 : 40
Duration                                 : 2h 6mn
Bit rate mode                            : Variable
Bit rate                                 : 128 Kbps
Maximum bit rate                         : 252 Kbps
Channel(s)                               : 2 channels
Channel positions                        : Front: L R
Sampling rate                            : 48.0 KHz
Compression mode                         : Lossy
Stream size                              : 116 MiB (6%)
Language                                 : Russian
Encoded date                             : UTC 2014-01-18 18:22:43
Tagged date                              : UTC 2014-01-18 18:23:02

Audio #3
ID                                       : 4
Format                                   : AAC
Format/Info                              : Advanced Audio Codec
Format profile                           : LC
Codec ID                                 : 40
Duration                                 : 2h 5mn
Bit rate mode                            : Variable
Bit rate                                 : 128 Kbps
Maximum bit rate                         : 249 Kbps
Channel(s)                               : 2 channels
Channel positions                        : Front: L R
Sampling rate                            : 48.0 KHz
Compression mode                         : Lossy
Stream size                              : 115 MiB (6%)
Language                                 : Ukrainian
Encoded date                             : UTC 2014-01-18 18:22:49
Tagged date                              : UTC 2014-01-18 18:23:02

Audio #4
ID                                       : 5
Format                                   : AAC
Format/Info                              : Advanced Audio Codec
Format profile                           : LC
Codec ID                                 : 40
Duration                                 : 2h 6mn
Bit rate mode                            : Variable
Bit rate                                 : 127 Kbps
Maximum bit rate                         : 250 Kbps
Channel(s)                               : 2 channels
Channel positions                        : Front: L R
Sampling rate                            : 48.0 KHz
Compression mode                         : Lossy
Stream size                              : 115 MiB (6%)
Language                                 : English
Encoded date                             : UTC 2014-01-18 18:22:56
Tagged date                              : UTC 2014-01-18 18:23:02

Text #1
ID                                       : 6
Format                                   : Timed Text
Muxing mode                              : sbtl
Codec ID                                 : tx3g
Duration                                 : 2h 0mn
Bit rate mode                            : Variable
Bit rate                                 : 65 bps
Stream size                              : 57.3 KiB (0%)
Language                                 : Russian
Encoded date                             : UTC 2014-01-18 18:23:01
Tagged date                              : UTC 2014-01-18 18:23:02

Text #2
ID                                       : 7
Format                                   : Timed Text
Muxing mode                              : sbtl
Codec ID                                 : tx3g
Duration                                 : 2h 0mn
Bit rate mode                            : Variable
Bit rate                                 : 38 bps
Stream size                              : 33.4 KiB (0%)
Language                                 : English
Encoded date                             : UTC 2014-01-18 18:23:02
Tagged date                              : UTC 2014-01-18 18:23:02

Menu
ID                                       : 9
Codec ID                                 : text
Duration                                 : 2h 6mn
Encoded date                             : UTC 2014-01-19 18:45:53
Tagged date                              : UTC 2014-01-19 18:45:53
Bit rate mode                            : VBR
Duration_LastFrame                       : -222513
Код:
x264 [info]: frame I:5636  Avg QP:22.92  size: 24285  PSNR Mean Y:41.54 U:49.52 V:50.48 Avg:42.95 Global:40.99
x264 [info]: frame P:176042 Avg QP:23.42  size:  7293  PSNR Mean Y:40.60 U:49.27 V:49.14 Avg:42.03 Global:41.27
x264 [info]: mb I  I16..4: 32.6%  0.0% 67.4%
x264 [info]: mb P  I16..4:  1.8%  0.0%  3.9%  P16..4: 45.0% 17.2%  7.8%  0.0%  0.0%    skip:24.1%
x264 [info]: coded y,uvDC,uvAC intra: 71.6% 71.0% 24.1% inter: 24.3% 33.5% 0.9%
x264 [info]: i16 v,h,dc,p: 36% 18%  9% 37%
x264 [info]: i4 v,h,dc,ddl,ddr,vr,hd,vl,hu:  8%  5%  4% 15% 18% 17% 13% 11%  8%
x264 [info]: i8c dc,h,v,p: 54% 15% 23%  8%
x264 [info]: ref P L0: 74.8% 14.5% 10.7%
x264 [info]: SSIM Mean Y:0.9589639 (13.868db)
x264 [info]: PSNR Mean Y:40.625 U:49.276 V:49.180 Avg:42.056 Global:41.261 kb/s:1499.91


Релиз от:



   Похожие торренты   Торрент   Размер 
В этой теме нет новых непрочитанных сообщений. Приключения барона Мюнхаузена / The Adventures of Baron Munchausen (1988) BDRip-AVC от MediaClub | P, A

4 | 13

4.84 ГБ

В этой теме нет новых непрочитанных сообщений. Приключения барона Мюнхаузена / The Adventures of Baron Munchausen (1988) BDRip от HQCLUB

110 | 14

2.18 ГБ

В этой теме нет новых непрочитанных сообщений. Барон Мюнхгаузен / Baron Munchhausen / Baron on the Cannonball (2012) HDRip | D

405 | 20

1.46 ГБ

В этой теме нет новых непрочитанных сообщений. Новые приключения Пеппи Длинныйчулок / The New Adventures of Pippi Longstocking (1988) WEB-DLRip | A

92 | 14

1.46 ГБ

В этой теме нет новых непрочитанных сообщений. Новые приключения Винни Пуха / The New Adventures of Winnie the Pooh [S01-04] (1988-1991) WEBRip-AVC | D

51 | 26

11.95 ГБ

В этой теме нет новых непрочитанных сообщений. Дальнейшие приключения Теннеси Бака / The Further Adventures of Tennessee Buck (1988) DVDRip-AVC от NNM-CLUB | А

268 | 9

1.45 ГБ

В этой теме нет новых непрочитанных сообщений. Новые приключения Винни Пуха / The New Adventures of Winnie the Pooh [s01-04] (1988-1991) WEB-DL 1080p | D

33 | 15

33.69 ГБ




Вы не можете начинать темы
Вы не можете отвечать на сообщения
Вы не можете редактировать свои сообщения
Вы не можете удалять свои сообщения
Вы не можете добавлять вложения

Перейти:  
 Вход
ppkBB3cker v.2 © 2008-2014 @ PPK
[ Time : 0.038s | 19 Queries | GZIP : Off ]

cron