img image001 image001 image001 image001 image001 image001 image001 image001 image001 image001 image001 image001 image001 image001 image001 image001

Planets Sun Sun Sun
Статистика раздачи
Автор: PriZraK | Размер: 2.98 ГБ | Добавлен: 13 фев 2014
Раздают: 11    Качают: 4
Скачать торрент
Скачать торрент
Описание торрента

СообщениеДобавлено: 13 фев 2014 




Информация о фильме
Название: Неуловимый Люк
Оригинальное название: Lucky Luke
Год выпуска: 2009
Жанр: Комедия, приключения, вестерн, комикс
Режиссер: Джеймс Ют
В ролях: Жан Дюжарден, Микаэль Юн, Сильви Тестю, Даниэль Прево, Александра Лами, Мельвиль Пупо, Жан-Франсуа Бальмер, Андре Умански, Габриэль Коррадо, Помпейо Одивер

Описание: Счастливчик Люк возвращается в свой родной город Дэйзи Таун, где в то время хозяйничают злодеи Пат Покер и Билли Зи Ки. Там он встретит свою любовь, певицу из местной таверны по имени Белль, а также столкнётся со своими давними врагами Кэлэмити Джэйн и Джесси Джеймсом


Страна: Франция
Студия: UGC YM, Union Générale Cinématographique (UGC), France 2 Cinéma
Продолжительность: 01:43:15
Перевод: Дублированный

Файл
Качество: BDRip (AVC)
Видео: MPEG-4 AVC, 3300 Кбит/с, 1024x438, 24.000 кадр/с
Аудио #1: Русский (AC3, 6 ch, 384 Кбит/с) / Дублированный
Аудио #2: Французский (AC3, 6 ch, 448 Кбит/с)
Субтитры: Украинские, французские

Семпл



x264 [info]: frame I:1270 Avg QP:16.24 size: 94719
x264 [info]: frame P:37386 Avg QP:18.89 size: 31179
x264 [info]: frame B:110023 Avg QP:20.38 size: 11516
********************************************************************************************
Общее
Уникальный идентификатор : 239241423859368487346778643720299898887 (0xB3FC38E312B2F4A695E902F0FA986807)
Полное имя : D:Mои раздачиLucky.Luke.2009.BDRip.(AVC)-MediaClub.mkv
Формат : Matroska
Версия формата : Version 4 / Version 2
Размер файла : 2,98 Гбайт
Продолжительность : 1 ч. 43 м.
Общий поток : 4131 Кбит/сек
Название фильма : -=MediaClub-kaspr=-
Дата кодирования : UTC 2014-01-30 18:45:53
Программа кодирования : mkvmerge v6.1.0 ('Old Devil') built on Mar 4 2013 09:10:42
Библиотека кодирования : libebml v1.3.0 + libmatroska v1.4.0

Видео
Идентификатор : 1
Формат : AVC
Формат/Информация : Advanced Video Codec
Профиль формата : High@L4.1
Параметр CABAC формата : Да
Параметр ReFrames формата : 9 кадров
Идентификатор кодека : V_MPEG4/ISO/AVC
Продолжительность : 1 ч. 43 м.
Битрейт : 3300 Кбит/сек
Ширина : 1024 пикселя
Высота : 438 пикселей
Соотношение сторон : 2,35:1
Режим частоты кадров : Постоянный
Частота кадров : 24,000 кадра/сек
Цветовое пространство : YUV
Субдискретизация насыщенности : 4:2:0
Битовая глубина : 8 бит
Тип развёртки : Прогрессивная
Бит/(Пиксели*Кадры) : 0.307
Размер потока : 2,32 Гбайт (78%)
Заголовок : -=MediaClub-kaspr=-
Библиотека кодирования : x264 core 130 r2273 b3065e6
Настройки программы : cabac=1 / ref=9 / deblock=1:-3:-3 / analyse=0x3:0x133 / me=umh / subme=11 / psy=1 / psy_rd=1.00:0.20 / mixed_ref=1 / me_range=48 / chroma_me=1 / trellis=2 / 8x8dct=1 / cqm=0 / deadzone=21,11 / fast_pskip=0 / chroma_qp_offset=-3 / threads=12 / lookahead_threads=3 / sliced_threads=0 / nr=0 / decimate=0 / interlaced=0 / bluray_compat=0 / constrained_intra=0 / bframes=10 / b_pyramid=2 / b_adapt=2 / b_bias=0 / direct=3 / weightb=1 / open_gop=0 / weightp=2 / keyint=240 / keyint_min=24 / scenecut=40 / intra_refresh=0 / rc=2pass / mbtree=0 / bitrate=3300 / ratetol=1.0 / qcomp=0.60 / qpmin=0 / qpmax=69 / qpstep=4 / cplxblur=20.0 / qblur=0.5 / ip_ratio=1.40 / pb_ratio=1.30 / aq=1:1.00
Default : Да
Forced : Нет

Аудио #1
Идентификатор : 2
Формат : AC-3
Формат/Информация : Audio Coding 3
Расширение режима : CM (complete main)
Параметр Endianness формата : Big
Идентификатор кодека : A_AC3
Продолжительность : 1 ч. 43 м.
Вид битрейта : Постоянный
Битрейт : 384 Кбит/сек
Каналы : 6 каналов
Расположение каналов : Front: L C R, Side: L R, LFE
Частота : 48,0 КГц
Битовая глубина : 16 бит
Метод сжатия : С потерями
Размер потока : 284 Мбайт (9%)
Заголовок : Дубляж
Язык : Russian
Default : Да
Forced : Да

Аудио #2
Идентификатор : 3
Формат : AC-3
Формат/Информация : Audio Coding 3
Расширение режима : CM (complete main)
Параметр Endianness формата : Big
Идентификатор кодека : A_AC3
Продолжительность : 1 ч. 43 м.
Вид битрейта : Постоянный
Битрейт : 448 Кбит/сек
Каналы : 6 каналов
Расположение каналов : Front: L C R, Side: L R, LFE
Частота : 48,0 КГц
Битовая глубина : 16 бит
Метод сжатия : С потерями
Размер потока : 331 Мбайт (11%)
Язык : French
Default : Нет
Forced : Нет

Текст #1
Идентификатор : 4
Формат : UTF-8
Идентификатор кодека : S_TEXT/UTF8
Идентификатор кодека/Информация : UTF-8 Plain Text
Язык : Ukrainian
Default : Нет
Forced : Нет

Текст #2
Идентификатор : 5
Формат : UTF-8
Идентификатор кодека : S_TEXT/UTF8
Идентификатор кодека/Информация : UTF-8 Plain Text
Язык : French
Default : Нет
Forced : Нет

Меню
00:00:00.000 : en:Chapter 1
00:03:54.083 : en:Chapter 2
00:06:11.792 : en:Chapter 3
00:13:15.292 : en:Chapter 4
00:16:42.833 : en:Chapter 5
00:23:45.667 : en:Chapter 6
00:29:10.000 : en:Chapter 7
00:39:37.583 : en:Chapter 8
00:48:11.083 : en:Chapter 9
00:57:38.917 : en:Chapter 10
01:04:57.250 : en:Chapter 11
01:13:04.542 : en:Chapter 12
01:18:33.917 : en:Chapter 13
01:26:29.542 : en:Chapter 14
01:33:03.708 : en:Chapter 15
01:38:31.042 : en:Chapter 16


Релиз: |



   Похожие торренты   Торрент   Размер 
В этой теме нет новых непрочитанных сообщений. Путешествие на запад / Go West: A Lucky Luke Adventure / Tous à l'Ouest: Une aventure de Lucky Luke (2007) BDRip 1080p от HDClub

9 | 3

4.72 ГБ

В этой теме нет новых непрочитанных сообщений. Путешествие на запад / Go West: A Lucky Luke Adventure / Tous à l'Ouest: Une aventure de Lucky Luke (2007) DVD5 от New-Team | P | Лицензия

17 | 15

4.38 ГБ

В этой теме нет новых непрочитанных сообщений. Счастливчик Люк: Баллада о Долтонах / Lucky Luke: The Ballad of the Daltons (1978) BDRip от KinoRay & WebWhitePain | A

47 | 13

2.12 ГБ

В этой теме нет новых непрочитанных сообщений. Счастливое число Слевина / Lucky Number Slevin (2005) BDRip от MediaClub | КПК

76 | 8

497.37 МБ

В этой теме нет новых непрочитанных сообщений. Мои счастливые звезды / Полицейский из Гонконга / Fuk sing go jiu / My Lucky Stars (1985) BDRip-AVC от MediaClub | A

233 | 18

3.09 ГБ

В этой теме нет новых непрочитанных сообщений. Мои счастливые звезды / Полицейский из Гонконга / Fuk sing go jiu / My Lucky Stars (1985) BDRip 720p от MediaClub | A

62 | 22

6.05 ГБ

В этой теме нет новых непрочитанных сообщений. Мои счастливые звезды 2 / Xia ri fu xing / Twinkle Twinkle My Lucky Stars (1985) BDRip-AVC от MediaClub

395 | 9

3.1 ГБ




Вы не можете начинать темы
Вы не можете отвечать на сообщения
Вы не можете редактировать свои сообщения
Вы не можете удалять свои сообщения
Вы не можете добавлять вложения

Перейти:  
 Вход
ppkBB3cker v.2 © 2008-2014 @ PPK
[ Time : 0.024s | 17 Queries | GZIP : Off ]

cron