img image001 image001 image001 image001 image001 image001 image001 image001 image001 image001 image001 image001 image001 image001 image001

Planets Sun Sun Sun
Статистика раздачи
Автор: PriZraK | Размер: 2.19 ГБ | Добавлен: 13 фев 2014
Раздают: 50    Качают: 24
Скачать торрент
Скачать торрент
Описание торрента

СообщениеДобавлено: 13 фев 2014 


#77
Страна: США
Производство: Edgar Rice Burroughs Inc., Warner Bros. Pictures, WEA Records
Жанр: драма, мелодрама, приключения
Год выпуска: 1984
Продолжительность: 02:17:00

Перевод: Профессиональный (полное дублирование) (Варус-Видео)
Оригинальная аудиодорожка: английский
Cубтитры: русский, английский

Режиссер: Хью Хадсон / Hugh Hudson

В ролях:
Кристофер Ламберт, Энди МакДауэлл, Ральф Ричардсон, Иэн Холм, Джеймс Фокс, Шерил Кэмпбелл, Иэн Чарлсон, Найджел Девенпорт, Николас Фэррел, Пол Джефри...

Описание:
Мальчик, выросший среди диких обезьян, возвращается к людям, чтобы заявить свои права на жизнь среди людей. Удивительная сага о Тарзане, созданная писателем Эдгаром Райсом Берроузом, — это волнующий рассказ о столкновении двух миров, дикого и цивилизованного...







Исходник: BDRemux 1080p
Тип релиза: BDRip-AVC
Контейнер: MKV

Видео: 1024x428 (2,40:1), 23,976 fps, H264 ~ 1642 kbps avg, 0.156 bit/pixel
Аудио: 48 kHz, Dolby Digital AC3 2.0, 192 kbps DUB
Аудио: 48 kHz, Dolby Digital AC3 5.1, 448 kbps Английский
Оригинальная навигация по главам: есть
Субтитры: SoftSub (srt)

Раздача от:
Общее
Полное имя : Grejstok.Legenda.o.Tarzane.povelitele.obezyan.1984.BDRip-AVC_[New-team]_by_AVP_Studio.mkv
Формат : Matroska
Версия формата : Version 4 / Version 2
Размер файла : 2,19 Гбайт
Продолжительность : 2 ч. 17 м.
Общий поток : 2284 Кбит/сек
Название фильма : Grejstok.Legenda.o.Tarzane.povelitele.obezyan.1984.BDRip-AVC_[New-team]_by_AVP_Studio
Дата кодирования : UTC 2014-02-04 07:39:17
Программа кодирования : mkvmerge v6.7.0 ('Back to the Ground') 64bit built on Jan 8 2014 15:10:52
Библиотека кодирования : libebml v1.3.0 + libmatroska v1.4.1

Видео
Идентификатор : 1
Формат : AVC
Формат/Информация : Advanced Video Codec
Профиль формата : High@L4.1
Параметр CABAC формата : Да
Параметр ReFrames формата : 8 кадров
Идентификатор кодека : V_MPEG4/ISO/AVC
Продолжительность : 2 ч. 17 м.
Битрейт : 1642 Кбит/сек
Ширина : 1024 пикселя
Высота : 428 пикселей
Соотношение сторон : 2,40:1
Режим частоты кадров : Постоянный
Частота кадров : 23,976 кадра/сек
Цветовое пространство : YUV
Субдискретизация насыщенности : 4:2:0
Битовая глубина : 8 бит
Тип развёртки : Прогрессивная
Бит/(Пиксели*Кадры) : 0.156
Размер потока : 1,53 Гбайт (70%)
Заголовок : Источник BDRemux
Библиотека кодирования : x264 core 138 r2356 a1d3d17
Настройки программы : cabac=1 / ref=8 / deblock=1:-2:-1 / analyse=0x3:0x113 / me=umh / subme=10 / psy=1 / psy_rd=1.00:0.05 / mixed_ref=1 / me_range=32 / chroma_me=1 / trellis=2 / 8x8dct=1 / cqm=0 / deadzone=21,11 / fast_pskip=0 / chroma_qp_offset=-3 / threads=3 / lookahead_threads=1 / sliced_threads=0 / nr=0 / decimate=0 / interlaced=0 / bluray_compat=0 / constrained_intra=0 / bframes=8 / b_pyramid=2 / b_adapt=2 / b_bias=0 / direct=3 / weightb=1 / open_gop=0 / weightp=2 / keyint=250 / keyint_min=25 / scenecut=40 / intra_refresh=0 / rc=2pass / mbtree=0 / bitrate=1642 / ratetol=1.0 / qcomp=0.60 / qpmin=0 / qpmax=69 / qpstep=4 / cplxblur=20.0 / qblur=0.5 / ip_ratio=1.40 / pb_ratio=1.30 / aq=1:1.00
Язык : English
Default : Да
Forced : Нет

Аудио #1
Идентификатор : 2
Формат : AC-3
Формат/Информация : Audio Coding 3
Расширение режима : CM (complete main)
Параметр Endianness формата : Big
Идентификатор кодека : A_AC3
Продолжительность : 2 ч. 17 м.
Вид битрейта : Постоянный
Битрейт : 192 Кбит/сек
Каналы : 2 канала
Расположение каналов : Front: L R
Частота : 48,0 КГц
Битовая глубина : 16 бит
Метод сжатия : С потерями
Размер потока : 188 Мбайт (8%)
Заголовок : Источник BDRemux Dolby Digital 2,0 192 kbps
Язык : Russian
Default : Да
Forced : Нет

Аудио #2
Идентификатор : 3
Формат : AC-3
Формат/Информация : Audio Coding 3
Расширение режима : CM (complete main)
Параметр Endianness формата : Big
Идентификатор кодека : A_AC3
Продолжительность : 2 ч. 17 м.
Вид битрейта : Постоянный
Битрейт : 448 Кбит/сек
Каналы : 6 каналов
Расположение каналов : Front: L C R, Side: L R, LFE
Частота : 48,0 КГц
Битовая глубина : 16 бит
Метод сжатия : С потерями
Размер потока : 439 Мбайт (20%)
Заголовок : Источник BDRemux
Язык : English
Default : Нет
Forced : Нет

Текст #1
Идентификатор : 4
Формат : UTF-8
Идентификатор кодека : S_TEXT/UTF8
Идентификатор кодека/Информация : UTF-8 Plain Text
Заголовок : Источник BDRemux SoftSub (srt)
Язык : Russian
Default : Нет
Forced : Нет

Текст #2
Идентификатор : 5
Формат : UTF-8
Идентификатор кодека : S_TEXT/UTF8
Идентификатор кодека/Информация : UTF-8 Plain Text
Заголовок : Источник BDRemux SoftSub (srt)
Язык : English
Default : Нет
Forced : Нет

Меню
00:00:00.000 : en:00:00:00.000
00:01:41.101 : en:00:01:41.101
00:03:37.926 : en:00:03:37.926
00:05:52.185 : en:00:05:52.185
00:08:40.478 : en:00:08:40.478
00:11:14.591 : en:00:11:14.591
00:16:04.839 : en:00:16:04.839
00:18:53.007 : en:00:18:53.007
00:22:55.874 : en:00:22:55.874
00:27:50.460 : en:00:27:50.460
00:32:18.854 : en:00:32:18.854
00:37:13.648 : en:00:37:13.648
00:41:54.929 : en:00:41:54.929
00:44:56.110 : en:00:44:56.110
00:49:41.312 : en:00:49:41.312
00:53:28.872 : en:00:53:28.872
00:55:54.977 : en:00:55:54.977
00:59:53.882 : en:00:59:53.882
01:04:40.502 : en:01:04:40.502
01:09:12.065 : en:01:09:12.065
01:13:34.076 : en:01:13:34.076
01:17:00.908 : en:01:17:00.908
01:20:31.410 : en:01:20:31.410
01:24:52.337 : en:01:24:52.337
01:28:47.572 : en:01:28:47.572
01:31:58.388 : en:01:31:58.388
01:34:52.020 : en:01:34:52.020
01:36:04.342 : en:01:36:04.342
01:38:31.906 : en:01:38:31.906
01:41:44.932 : en:01:41:44.932
01:46:33.262 : en:01:46:33.262
01:52:07.638 : en:01:52:07.638
01:55:25.919 : en:01:55:25.919
01:58:10.917 : en:01:58:10.917
02:05:33.735 : en:02:05:33.735
02:10:56.599 : en:02:10:56.599
02:13:18.657 : en:02:13:18.657



В кастинге на роль Тарзана участвовало 400 претендентов. Режиссёр выбрал молодого неизвестного французского актера Кристофа Ламбера, внешний вид которого сочетал в себе черты свободолюбивого дикаря Тарзана и врожденный аристократизм графа Грейстока. Хадсон поставил перед актером жесткие условия — за полгода накачать мышцы, научиться лазать по лианам и избавиться от французского акцента.
Так как это была первая английская роль Кристофа Ламбера, он взял себе псевдоним для англоязычных стран — Кристофер Ламберт.
Часть африканскиих сцен были сняты в национальном парке Koруп на юго-западе Камеруна среди пышных тропических лесов. Изящный двухструйный водопад Эком, перепад высот которого достигает 100 метров, присутствует во многих кадрах фильма, в том числе и в финале.
Для показа роскошного убранства фамильного замка Грейсток были сняты следующие английские достопримечательности. Внешний вид особняка — замок Флорс Келсо в Шотландии. Сцены внутри — особняк Хатфилд в Хартфордшире.
Джон Клейтон (имя Тарзан никогда не упоминается в фильме), открывает «Грейсток экспозицию» в лондонском музее естественной истории, в главном зале динозавров.
В республике Мадагаскар в 1999 году была выпущена почтовая марка «Кристоф Ламбер», где французский актёр запечатлен в образе Тарзана из фильма «Грейсток: Легенда о Тарзане, повелителе обезьян».



   Похожие торренты   Торрент   Размер 
В этой теме нет новых непрочитанных сообщений. Грейстоук: Легенда о Тарзане, повелителе обезьян / Greystoke: The Legend of Tarzan, Lord of the Apes (1984) BDRip от New-Team

39 | 5

1.46 ГБ

В этой теме нет новых непрочитанных сообщений. Грейстоук: Легенда о Тарзане, повелителе обезьян / Greystoke: The Legend of Tarzan, Lord of the Apes (1984) BDRip 720p | D,M,P1

8 | 3

13.13 ГБ

В этой теме нет новых непрочитанных сообщений. Грейстоук: Легенда о Тарзане, повелителе обезьян / Greystoke: The Legend of Tarzan, Lord of the Apes (1984) DVDRip

8 | 2

1.36 ГБ

В этой теме нет новых непрочитанных сообщений. Легенда о Тарзане / The Legend of Tarzan [S01-02] (2001-2003) SATRip

19 | 24

9.14 ГБ

В этой теме нет новых непрочитанных сообщений. Легенда о Тарзане / The Legend of Tarzan [S01-02] (2001-2003) HDTVRip

5 | 3

14.22 ГБ

В этой теме нет новых непрочитанных сообщений. Легенда о Тарзане / The Legend of Tarzan [S01-02] (2001-2003) HDTVRip 720p

1 | 3

21.04 ГБ

В этой теме нет новых непрочитанных сообщений. Тарзан. Легенда / The Legend of Tarzan (2016) BDRip 1080p от new-team | iTunes

413 | 81

7.46 ГБ




Вы не можете начинать темы
Вы не можете отвечать на сообщения
Вы не можете редактировать свои сообщения
Вы не можете удалять свои сообщения
Вы не можете добавлять вложения

Перейти:  
Для Мосгорсуда, Роскомнадзора и рекламодателей: mosgorsud-torrent[собачка]yandex.ru
 Вход
ppkBB3cker v.2 © 2008-2014 @ PPK
[ Time : 0.055s | 16 Queries | GZIP : Off ]

Торрент трекер RUTOR.IN, Не можете зайти на rutor.org? Какой новый адрес рутор? Какое зеркало рутор? Не работает rutor.org и зеркала? Тогда наш торрент специально для вас. Rutor.in неофициальное зеркало rutor. В случае если у Вас заблокирован rutor или вдруг Вы не можете на него зайти, то Вы без труда сможете скачать бесплатно и без рекламы последние новинки кино, игр, сериалов и прочего у нас, на Rutor.in. Не нужно использовать прокси, чтобы зайти на рутор, достаточно воспользоваться нашим ресурсом. Все новые фильмы, игры, сериалы, книги и музыка за 2013 и 2014 годы через торрент бесплатно. Скачивайте фильмы в хорошем качестве, игры для пк, xbox, playstation без регистрации. У нас вы найдете новые Зарубежные сериалы и Русские сериалы 2013, 2014, 2015 годов. Оставайтесь с нами, качайте любимые фильмы, игры, сериалы, книги и музыку.
cron