img image001 image001 image001 image001 image001 image001 image001 image001 image001 image001 image001 image001 image001 image001 image001 image001

Planets Sun Sun Sun
Статистика раздачи
Автор: PriZraK | Размер: 1.84 ГБ | Добавлен: 13 фев 2014
Раздают: 70    Качают: 7
Скачать торрент
Скачать торрент
Описание торрента

СообщениеДобавлено: 13 фев 2014 


#77
Черный орел
| Black Eagle |


Информация о фильме
Название: Черный орел
Оригинальное название: Black Eagle
Год выхода: 1988
Жанр: боевик, драма
Режиссер: Эрик Карсон
В ролях: Сё Косуги, Жан-Клод Ван Дамм, Доран Кларк, Брюс Френч, Владимир Скомаровский, Уильям Бассетт, Кейн Косуги, Шейн Косуги, Дорота Пузио, Ян Тришка, Джин Дэвис, Альфред Маллиа, Джо Квоттромани, Виктор Бартоло, Джордж Портелли, Эрик Карсон, Джули Рудольф, Джози Коппини, Годфри Беццина, Кевин Монреаль, Чарльз Заммит, Джон Суда, Сильвио Анастаси, Филип Гоци, Майкл Табоун, Лина Гали-Кумбо, Майкл Скиортино, Патриция Махони, Рэй Абдилла, Марко Борг Бонаки

О фильме:
Под именем «Черного Орла» специальный агент ЦРУ приезжает на Мальту, чтобы помешать КГБ выкрасть суперсекретное новое лазерное устройство. С этого дня спокойная жизнь для обитателей острова закончилась: взрывы, погони, убийства, похищения детей. Поклонники этих двух звезд не будут разочарованы этой приключенческой, насыщенной действием картиной.



Страна: США
Студия: Magus, Rotecon B.V.
Продолжительность: 01:29:13
Перевод: Профессиональный многоголосый, авторский одноголосый

Файл
Кодек: h.264
Качество: DVDRip-AVC
Видео: 2376 Кбит/с, 696x572@742x572, 25.000 кадр/с

Звук:
• №1: Русский (AC3, 2 ch, 192 Кбит/с) Профессиональный многоголосый [Twister Digital Video / Россия-1]
• №2: Русский (AC3, 2 ch, 192 Кбит/с) Авторский одноголосый [Андрей Гаврилов]
• №3: Английский (AC3, 2 ch, 192 Кбит/с)

Субтитры: Русские

-----------------------------------------------------------------------
x264 [info]: frame I:1002 Avg QP:17.56 size: 52638
x264 [info]: frame P:27492 Avg QP:20.00 size: 22098
x264 [info]: frame B:105342 Avg QP:21.56 size: 8826
-----------------------------------------------------------------------

Полное имя : Black.Eagle.1988.x264.DVDRip-AVC.0ptimus.mkv
Формат : Matroska
Версия формата : Version 2
Размер файла : 1,84 Гбайт
Продолжительность : 1 ч. 29 м.
Общий поток : 2954 Кбит/сек
Название фильма : Черный орел | Black Eagle [1988] -= DVDRip (AVC) by 0ptimus=-
Дата кодирования : UTC 2014-02-08 12:22:19
Программа кодирования : mkvmerge v6.6.0 ('The Edge Of The In Between') built on Dec 1 2013 17:55:00
Библиотека кодирования : libebml v1.3.0 + libmatroska v1.4.1

Видео
Идентификатор : 1
Формат : AVC
Формат/Информация : Advanced Video Codec
Профиль формата : High@L4.1
Параметр CABAC формата : Да
Параметр ReFrames формата : 9 кадров
Идентификатор кодека : V_MPEG4/ISO/AVC
Продолжительность : 1 ч. 29 м.
Битрейт : 2376 Кбит/сек
Ширина : 696 пикселей
Высота : 572 пикселя
Соотношение сторон : 1,297
Соотношение сторон в оригинале : 1,298
Режим частоты кадров : Постоянный
Частота кадров : 25,000 кадров/сек
Цветовое пространство : YUV
Субдискретизация насыщенности : 4:2:0
Битовая глубина : 8 бит
Тип развёртки : Прогрессивная
Бит/(Пиксели*Кадры) : 0.239
Размер потока : 1,45 Гбайт (79%)
Заголовок : Rip by 0ptimus
Библиотека кодирования : x264 core 133 r2334 a3ac64b
Настройки программы : cabac=1 / ref=9 / deblock=1:-3:-3 / analyse=0x3:0x113 / me=umh / subme=11 / psy=1 / psy_rd=1.00:0.20 / mixed_ref=1 / me_range=48 / chroma_me=1 / trellis=2 / 8x8dct=1 / cqm=0 / deadzone=21,11 / fast_pskip=0 / chroma_qp_offset=-3 / threads=3 / lookahead_threads=1 / sliced_threads=0 / nr=0 / decimate=0 / interlaced=0 / bluray_compat=0 / constrained_intra=0 / bframes=11 / b_pyramid=2 / b_adapt=2 / b_bias=0 / direct=3 / weightb=1 / open_gop=0 / weightp=2 / keyint=250 / keyint_min=25 / scenecut=40 / intra_refresh=0 / rc_lookahead=40 / rc=2pass / mbtree=0 / bitrate=2376 / ratetol=1.0 / qcomp=0.60 / qpmin=0 / qpmax=69 / qpstep=4 / cplxblur=20.0 / qblur=0.5 / vbv_maxrate=50000 / vbv_bufsize=50000 / nal_hrd=none / ip_ratio=1.40 / pb_ratio=1.30 / aq=1:1.00
Язык : English
Default : Да
Forced : Да

Аудио #1
Идентификатор : 2
Формат : AC-3
Формат/Информация : Audio Coding 3
Расширение режима : CM (complete main)
Параметр Endianness формата : Big
Идентификатор кодека : A_AC3
Продолжительность : 1 ч. 29 м.
Вид битрейта : Постоянный
Битрейт : 192 Кбит/сек
Каналы : 2 канала
Расположение каналов : Front: L R
Частота : 48,0 КГц
Битовая глубина : 16 бит
Метод сжатия : С потерями
Задержка видео : 5 с. 80 мс.
Размер потока : 123 Мбайт (6%)
Заголовок : Двухголосый закадровый [Twister Digital Video / Россия 1] AC3 2.0 @ 192 kbps
Язык : Russian
Default : Да
Forced : Да

Аудио #2
Идентификатор : 3
Формат : AC-3
Формат/Информация : Audio Coding 3
Расширение режима : CM (complete main)
Параметр Endianness формата : Big
Идентификатор кодека : A_AC3
Продолжительность : 1 ч. 29 м.
Вид битрейта : Постоянный
Битрейт : 192 Кбит/сек
Каналы : 2 канала
Расположение каналов : Front: L R
Частота : 48,0 КГц
Битовая глубина : 16 бит
Метод сжатия : С потерями
Размер потока : 123 Мбайт (6%)
Заголовок : Авторский [Андрей Гаврилов] AC3 2.0 @ 192 kbps
Язык : Russian
Default : Нет
Forced : Нет

Аудио #3
Идентификатор : 4
Формат : AC-3
Формат/Информация : Audio Coding 3
Расширение режима : CM (complete main)
Параметр Endianness формата : Big
Идентификатор кодека : A_AC3
Продолжительность : 1 ч. 29 м.
Вид битрейта : Постоянный
Битрейт : 192 Кбит/сек
Каналы : 2 канала
Расположение каналов : Front: L R
Частота : 48,0 КГц
Битовая глубина : 16 бит
Метод сжатия : С потерями
Задержка видео : 5 с. 80 мс.
Размер потока : 123 Мбайт (6%)
Заголовок : AC3 2.0 @ 192 kbps
Язык : English
Default : Нет
Forced : Нет

Текст
Идентификатор : 5
Формат : UTF-8
Идентификатор кодека : S_TEXT/UTF8
Идентификатор кодека/Информация : UTF-8 Plain Text
Default : Да
Forced : Нет

Меню
00:00:00.000 : :Chapter 01
00:03:46.920 : :Chapter 02
00:08:12.000 : :Chapter 03
00:09:53.760 : :Chapter 04
00:12:32.760 : :Chapter 05
00:16:44.880 : :Chapter 06
00:19:27.000 : :Chapter 07
00:22:05.280 : :Chapter 08
00:23:53.400 : :Chapter 09
00:28:02.760 : :Chapter 10
00:31:15.000 : :Chapter 11
00:35:35.040 : :Chapter 12
00:40:47.760 : :Chapter 13
00:48:03.000 : :Chapter 14
00:51:19.080 : :Chapter 15
00:54:32.400 : :Chapter 16
00:58:46.920 : :Chapter 17
01:00:52.680 : :Chapter 18
01:03:49.080 : :Chapter 19
01:08:41.760 : :Chapter 20
01:11:06.480 : :Chapter 21
01:15:25.200 : :Chapter 22
01:19:22.800 : :Chapter 23
01:26:07.920 : :Chapter 24



Релиз от:



   Похожие торренты   Торрент   Размер 
В этой теме нет новых непрочитанных сообщений. Черный орел / Black Eagle (1988) BDRip-AVC от 0ptimus | P, A | Режиссерская версия / Director's Cut

18 | 12

3.04 ГБ

В этой теме нет новых непрочитанных сообщений. Черный орел / Black Eagle (1988) DVDRip | P, P2

184 | 2

1.46 ГБ

В этой теме нет новых непрочитанных сообщений. Черный орел ★ Black Eagle (1988) DVDRip

7 | 5

1.37 ГБ

В этой теме нет новых непрочитанных сообщений. Черный орел / Black Eagle (1988) DVDRip-AVC | P, A, P2

3 | 3

2.04 ГБ

В этой теме нет новых непрочитанных сообщений. Черный орел / Black Eagle (1988) DVDRip от Alekxandr48 | L 2

1 | 3

654.41 МБ

В этой теме нет новых непрочитанных сообщений. Чёрный орёл / Black Eagle (1988) HDRip от Scarabey | P

41 | 20

1.45 ГБ

В этой теме нет новых непрочитанных сообщений. Черный орел / Black Eagle (1988) BDRip от HQCLUB | Director's cut

325 | 26

2.18 ГБ




Вы не можете начинать темы
Вы не можете отвечать на сообщения
Вы не можете редактировать свои сообщения
Вы не можете удалять свои сообщения
Вы не можете добавлять вложения

Перейти:  
 Вход
ppkBB3cker v.2 © 2008-2014 @ PPK
[ Time : 0.039s | 18 Queries | GZIP : Off ]

cron