img image001 image001 image001 image001 image001 image001 image001 image001 image001 image001 image001 image001 image001 image001 image001 image001
Planets Sun Sun Sun
Статистика раздачи
Автор: PriZraK | Размер: 10.1 ГБ | Добавлен: 13 фев 2014
Раздают: 18    Качают: 9
Скачать торрент
Скачать торрент
Описание торрента

СообщениеДобавлено: 13 фев 2014 


#77

Информация о фильме
Название: 13 роз
Оригинальное название: Las 13 rosas / 13 roses
Год выхода: 2007
Жанр: драма
Режиссер: Эмилио Мартинез Лазаро
В ролях: Пилар Лопес де Айяла, Вероника Санчез, Габриэлла Пессион, Марта Этура, Надя Де Сантьяго, Тереза Хуртадо, Барбара Ленни, Альба Алонсо, Селия Пастор, Сильвия Мир

О фильме:
"Тринадцать роз" - имя, которое было дано в Испании группе, состоящей из тринадцати молодых девушек и женщин, семь из которых были несовершеннолетними. Все они были казнены франкистским режимом после окончания гражданской войны, во время кампании массовых репрессий против врагов диктаторского режима. Вместе с ними были убиты сорок три молодых парня...



Выпущено: Испания
Продолжительность: 02:09:07
Озвучивание: Любительское (одноголосое) [Andi]

Файл
Формат: MKV
Качество: BDRip 720p [SbR]
Видео: 9271 kb/s, 1280x546
Аудио: Russian: AC3, 192 kb/s (2 ch) / Spanish: DTS, 1510 kb/s (6 ch)
Субтитры: Russian [Александр Свирин], English
Размер: 10.1 GB
Скачать: Сэмпл

Релиз группы:



Общее
13.Roses.2007.Blu.Ray.720p.CINEMANIA.mkv
Формат : Matroska
Версия формата : Version 4 / Version 2
Размер файла : 10,1 Гбайт
Продолжительность : 2 ч. 9 м.
Общий поток : 11,2 Мбит/сек
Название фильма : Release Group CINEMANIA
Дата кодирования : UTC 2014-02-09 10:48:08
Программа кодирования : mkvmerge v6.7.0 ('Back to the Ground') 64bit built on Jan 8 2014 15:10:52
Библиотека кодирования : libebml v1.3.0 + libmatroska v1.4.1

Видео
Идентификатор : 1
Формат : AVC
Формат/Информация : Advanced Video Codec
Профиль формата : High@L4.1
Параметр CABAC формата : Да
Параметр ReFrames формата : 11 кадров
Идентификатор кодека : V_MPEG4/ISO/AVC
Продолжительность : 2 ч. 9 м.
Битрейт : 9271 Кбит/сек
Ширина : 1280 пикселей
Высота : 546 пикселей
Соотношение сторон : 2,35:1
Режим частоты кадров : Постоянный
Частота кадров : 24,000 кадра/сек
Цветовое пространство : YUV
Субдискретизация насыщенности : 4:2:0
Битовая глубина : 8 бит
Тип развёртки : Прогрессивная
Бит/(Пиксели*Кадры) : 0.553
Размер потока : 8,36 Гбайт (83%)
Заголовок : Release Group CINEMANIA
Библиотека кодирования : x264 core 140 r2377+40 929f149 tMod [8-bit@all X86_64]
Настройки программы : cabac=1 / ref=11 / deblock=1:-1:-1 / analyse=0x3:0x133 / me=umh / subme=11 / psy=1 / fade_compensate=0.50 / psy_rd=1.10:0.00 / mixed_ref=1 / me_range=48 / chroma_me=1 / trellis=2 / 8x8dct=1 / cqm=0 / deadzone=21,11 / fast_pskip=0 / chroma_qp_offset=-2 / threads=12 / lookahead_threads=3 / sliced_threads=0 / nr=0 / decimate=0 / interlaced=0 / bluray_compat=0 / constrained_intra=0 / fgo=0 / bframes=16 / b_pyramid=2 / b_adapt=2 / b_bias=0 / direct=3 / weightb=1 / open_gop=0 / weightp=2 / keyint=250 / keyint_min=24 / scenecut=40 / intra_refresh=0 / rc_lookahead=250 / rc=crf / mbtree=1 / crf=17.5000 / qcomp=0.80 / qpmin=0:0:0 / qpmax=69:69:69 / qpstep=4 / ip_ratio=1.10 / aq=1:0.70 / aq-sensitivity=10.00 / aq-factor=1.00:1.00:1.00 / aq2=1:0.50 / aq2-sensitivity=15.00 / aq2-factor=1.00:1.00:1.00 / aq3=0
Язык : Spanish
Default : Да
Forced : Нет

Аудио #1
Идентификатор : 2
Формат : AC-3
Формат/Информация : Audio Coding 3
Расширение режима : CM (complete main)
Параметр Endianness формата : Big
Идентификатор кодека : A_AC3
Продолжительность : 2 ч. 9 м.
Вид битрейта : Постоянный
Битрейт : 192 Кбит/сек
Каналы : 2 канала
Расположение каналов : Front: L R
Частота : 48,0 КГц
Битовая глубина : 16 бит
Метод сжатия : С потерями
Размер потока : 177 Мбайт (2%)
Заголовок : Andi
Язык : Russian
Default : Да
Forced : Да

Аудио #2
Идентификатор : 3
Формат : DTS
Формат/Информация : Digital Theater Systems
Режим : 16
Параметр Endianness формата : Big
Идентификатор кодека : A_DTS
Продолжительность : 2 ч. 9 м.
Вид битрейта : Постоянный
Битрейт : 1509 Кбит/сек
Каналы : 6 каналов
Расположение каналов : Front: L C R, Side: L R, LFE
Частота : 48,0 КГц
Битовая глубина : 24 бит
Метод сжатия : С потерями
Размер потока : 1,36 Гбайт (13%)
Язык : Spanish
Default : Нет
Forced : Нет

Текст #1
Идентификатор : 4
Формат : UTF-8
Идентификатор кодека : S_TEXT/UTF8
Идентификатор кодека/Информация : UTF-8 Plain Text
Заголовок : Александр Свирин
Язык : Russian
Default : Нет
Forced : Нет

Текст #2
Идентификатор : 5
Формат : UTF-8
Идентификатор кодека : S_TEXT/UTF8
Идентификатор кодека/Информация : UTF-8 Plain Text
Язык : English
Default : Нет
Forced : Нет



   Похожие торренты   Торрент   Размер 
В этой теме нет новых непрочитанных сообщений. 13 роз / Las 13 rosas (2007) BDRip 720p | L1

0 | 0

7.92 ГБ

В этой теме нет новых непрочитанных сообщений. Стертое / Frayed (2007) WEB-DL 720p от CINEMANIA | L1

133 | 45

3.32 ГБ

В этой теме нет новых непрочитанных сообщений. Guns N' Roses - Live at Rock in Rio [02.10] (2011) HDTVRip-AVC 720p

21 | 2

3.72 ГБ

В этой теме нет новых непрочитанных сообщений. Roses and Cigarettes - Roses and Cigarettes (2015) MP3

29 | 2

104.81 МБ

В этой теме нет новых непрочитанных сообщений. Nana Mizuki - Preserved Roses (2014) BDRip 1080p от [JM]

24 | 4

239.33 МБ

В этой теме нет новых непрочитанных сообщений. Война супругов Роуз / The War of the Roses (1989) BDRip от Rulya74

7 | 3

2.18 ГБ

В этой теме нет новых непрочитанных сообщений. Война Роуз / Война супругов Роуз / The War of the Roses (1989) BDRip 720p от FREEISLAND

16 | 4

4.37 ГБ




Вы не можете начинать темы
Вы не можете отвечать на сообщения
Вы не можете редактировать свои сообщения
Вы не можете удалять свои сообщения
Вы не можете добавлять вложения

Перейти:  
Для Мосгорсуда, Роскомнадзора и рекламодателей: mosgorsud-torrent[собачка]yandex.ru
 Вход
ppkBB3cker v.2 © 2008-2014 @ PPK
[ Time : 0.037s | 17 Queries | GZIP : Off ]

cron