img image001 image001 image001 image001 image001 image001 image001 image001 image001 image001 image001 image001 image001 image001 image001

Planets Sun Sun Sun
Статистика раздачи
Автор: PriZraK | Размер: 742.65 МБ | Добавлен: 13 фев 2014
Раздают: 47    Качают: 11
Скачать торрент
Скачать торрент
Описание торрента

СообщениеДобавлено: 13 фев 2014 



АНОНСЫ МОИХ РИПОВ! ЛУЧШИЕ ФИЛЬМЫ ВСЕЙ ПЛАНЕТЫ! Подпишись :)


Взорвите банк / Faites sauter la banque!

#77
Год выпуска: 1964
Страна: Франция
Жанр: Комедия
Продолжительность: 01:24:19
Перевод: Профессиональный (двухголосый, закадровый)
Русские субтитры: нет

Режиссер: Жан Жиро / Jean Girault

В ролях: Луи Де Фюнес, Ивон Клеш, Жан-Пьер Мариэль, Ан Доат, Катрин Демонжо, Мишель Тюро, Жорж Вилсон, Жан Вальмон, Клод Пьеплю, Жан Лефевр, Жорж Аде, Ги Гроссо и др.

Описание: Виктор Гарнье - один из лучших оружейников Парижа, он владелец магазинчика "Охота и рыбная ловля". Напротив его магазинчика стоит кредитный банк "Дюран-Марой", у хозяина (Жан-Пьер Мариэль) которого девиз - деньги должны приносить деньги.
Виктор скопил некую сумму денег, и решил рискнуть вложить все в дело компании Тангана. А посредником как раз выбрал знакомого банкира Андре Дюрана-Мароя. Банкир уверил Виктора, что тот ни чем не рискует и через какие-то полгода удвоит свой капитал. Но на следующий день компании Тангана пришел конец, ее национализировали. Виктор понял, что его просто надули. Он решил вернуть деньги. Но как?
На семейном совете было решено ограбить банк, но не просто, а прорыть туннель к сейфам банка, и после чего, чтобы замести следы взорвать подвал банка.



Качество: DVDRip [Исходник DVD5]
Формат: AVI
Видео кодек: XviD
Аудио кодек: MP3
Видео: 624x384 (1.63:1), 25 fps, XviD build 73 ~1090 kbps avg, 0.18 bit/pixel
Аудио: 48 kHz, MPEG Layer 3, 2 ch, ~128.00 kbps avg

Раздача от:


D:Мои рипыVzorvite.bank.DVDRip.DVO.dexter_lex.avi
General
Complete name : D:Мои рипыVzorvite.bank.DVDRip.DVO.dexter_lex.avi
Format : AVI
Format/Info : Audio Video Interleave
File size : 743 MiB
Duration : 1h 24mn
Overall bit rate : 1 228 Kbps
Writing application : VirtualDubMod 1.5.10.3 | www.virtualdub-fr.org || (build 2550/release)
Writing library : VirtualDubMod build 2550/release
Video #0
ID : 0
Format : MPEG-4 Visual
Format profile : Advanced Simple@L5
Format settings, BVOP : 1
Format settings, QPel : No
Format settings, GMC : No warppoints
Format settings, Matrix : Custom
Codec ID : XVID
Codec ID/Hint : XviD
Duration : 1h 24mn
Bit rate : 1 091 Kbps
Width : 624 pixels
Height : 384 pixels
Display aspect ratio : 1.625
Frame rate : 25.000 fps
Color space : YUV
Chroma subsampling : 4:2:0
Bit depth : 8 bits
Scan type : Progressive
Compression mode : Lossy
Bits/(Pixel*Frame) : 0.182
Stream size : 659 MiB (89%)
Writing library : XviD 73
Audio #1
ID : 1
Format : MPEG Audio
Format version : Version 1
Format profile : Layer 3
Codec ID : 55
Codec ID/Hint : MP3
Duration : 1h 24mn
Bit rate mode : Constant
Bit rate : 128 Kbps
Channel(s) : 2 channels
Sampling rate : 48.0 KHz
Compression mode : Lossy
Stream size : 77.4 MiB (10%)
Alignment : Aligned on interleaves
Interleave, duration : 40 ms (1.00 video frame)
Interleave, preload duration : 504 ms
Writing library : LAME3.99r
Encoding settings : -m s -V 4 -q 2 -lowpass 17 -b 128




   Похожие торренты   Торрент   Размер 
В этой теме нет новых непрочитанных сообщений. Взорвите банк / Faites sauter la banque! (1964) DVDRip от New-Team

80 | 26

1.46 ГБ

В этой теме нет новых непрочитанных сообщений. Взорвите банк / Faites sauter la banque! (1964) DVDRip-AVC от New-Team

34 | 16

1.46 ГБ

В этой теме нет новых непрочитанных сообщений. Взорвите банк! / Faites sauter la banque! (1964) DVDRip Цветной

10 | 2

2.82 ГБ

В этой теме нет новых непрочитанных сообщений. Взорвите банк! / Faites sauter la banque! (1963) DVDRip by FS-Media

7 | 3

1.46 ГБ

В этой теме нет новых непрочитанных сообщений. Банк в Бангкоке / Banco à Bangkok pour OSS 117 (1964) DVDRip | L2

4 | 0

1.46 ГБ

В этой теме нет новых непрочитанных сообщений. Винчи, или Ва-банк 3 / Vinci (2004) DVDRip от New-Team

61 | 4

1.46 ГБ

В этой теме нет новых непрочитанных сообщений. Винчи, или Ва-банк 3 / Vinci (2004) DVDRip от New-Team

8 | 3

746.31 МБ




Вы не можете начинать темы
Вы не можете отвечать на сообщения
Вы не можете редактировать свои сообщения
Вы не можете удалять свои сообщения
Вы не можете добавлять вложения

Перейти:  
Для Мосгорсуда, Роскомнадзора и рекламодателей: mosgorsud-torrent[собачка]yandex.ru
 Вход
ppkBB3cker v.2 © 2008-2014 @ PPK
[ Time : 2.638s | 16 Queries | GZIP : Off ]

Торрент трекер RUTOR.IN, Не можете зайти на rutor.org? Какой новый адрес рутор? Какое зеркало рутор? Не работает rutor.org и зеркала? Тогда наш торрент специально для вас. Rutor.in неофициальное зеркало rutor. В случае если у Вас заблокирован rutor или вдруг Вы не можете на него зайти, то Вы без труда сможете скачать бесплатно и без рекламы последние новинки кино, игр, сериалов и прочего у нас, на Rutor.in. Не нужно использовать прокси, чтобы зайти на рутор, достаточно воспользоваться нашим ресурсом. Все новые фильмы, игры, сериалы, книги и музыка за 2013 и 2014 годы через торрент бесплатно. Скачивайте фильмы в хорошем качестве, игры для пк, xbox, playstation без регистрации. У нас вы найдете новые Зарубежные сериалы и Русские сериалы 2013, 2014, 2015 годов. Оставайтесь с нами, качайте любимые фильмы, игры, сериалы, книги и музыку.
cron