img image001 image001 image001 image001 image001 image001 image001 image001 image001 image001 image001 image001 image001 image001 image001 image001

Planets Sun Sun Sun
Статистика раздачи
Автор: PriZraK | Размер: 1.79 ГБ | Добавлен: 13 фев 2014
Раздают: 41    Качают: 25
Скачать торрент
Скачать торрент
Описание торрента

СообщениеДобавлено: 13 фев 2014 


#77

Человек из ниоткуда / Ajeossi (2010) BDRip-AVC | iPhone | P1,L1


Название: Человек из ниоткуда
Оригинальное название: Ajeossi
Год выхода: 2010
Жанр: боевик, триллер, криминал
Режиссер: Ли Чжон Бом
В ролях: Вон Бин, Ким Сэ Рон, Тхэ-Хун Ким, Хи-Вон Ким, Ким Сон О, Танаёнг Вонгтракул, Со-Хи Хонг, Хё-Со Ким, Нам Кён

О фильме:
Чха Тхэ Сик - скромный владелец ломбарда. Девочка Чон Соме его соседка и дочь матери-одиночки, которая работает в баре танцовщицей и не столько увлекается воспитанием ребенка, сколько ищет острых ощущений на свою и без того повидавшую виды, неудавшуюся жизнь. И вот однажды мать Соме вместе со своим парнем решает обокрасть наркокурьера, который регулярно появляется в заведении, где она выступает...


Страна: Корея Южная
Студия: Cinema Service, Opus Pictures, United Pictures
Продолжительность: 01:59:18
Перевод: Русский профессиональный одноголосый закадровый (Ю.Сербин), любительский одноголосый закадровый (@PD)

Файл
Кодек: H.264
Качество: BDRip-AVC 480p iPhone
Видео: 640x364@851x364 at 23.976 fps, AVC at 1800 kbps
Звук:
1: 48 kHz, AAC 2.0, 180 kbps - Русский профессиональный одноголосый закадровый (Ю.Сербин)
2: 48 kHz, AAC 2.0, 180 kbps - Русский любительский одноголосый закадровый (@PD)
3: 48 kHz, AAC 2.0, 180 kbps - Корейский
Субтитры: Русский, Английские

Общее
Полное имя : /Users/gekkas/Movies/CREATE/Ajeossi.2012 (SD).m4v
Формат : MPEG-4
Идентификатор кодека : M4V
Размер файла : 1,79 Гбайт
Продолжительность : 1 ч. 59 м.
Режим общего битрейта : Переменный
Общий поток : 2154 Кбит/сек
Название фильма : Человек из ниоткуда
Исполнитель : Jeong-beom Lee
Жанр : Action & Crime & Thriller
Дата записи : UTC 2010-08-05 07:00:00
Дата кодирования : UTC 2013-03-28 13:02:55
Дата пометки : UTC 2013-03-29 19:36:49
Правообладатель : © Cinema Service, Opus Pictures, United Pictures
Обложка : Yes
Примечание : «Nothing to lose, nothing to compromise»
sonm : Ajeossi
desc : Ча Тай Шик скромный владелец ломбарда. Девочка Чон Соме его соседка и дочь матери-одиночки, которая работает в баре танцовщицей и не столько увлекается воспитанием ребенка, сколько ищет острых ощущений.
ldes : Ча Тай Шик скромный владелец ломбарда. Девочка Чон Соме его соседка и дочь матери-одиночки, которая работает в баре танцовщицей и не столько увлекается воспитанием ребенка, сколько ищет острых ощущений на свою и без того повидавшую виды, неудавшуюся жизнь. И вот однажды мать Соме вместе со своим парнем решает обокрасть наркокурьера, который регулярно появляется в заведении, где она выступает…
stik : 9
rtng : 0
cnID : 484866
xid : Apple:vendor_id:2010-484866
iTunEXTC : mpaa|R|400|

Видео #1
Идентификатор : 1
Формат : AVC
Формат/Информация : Advanced Video Codec
Профиль формата : Baseline@L3.0
Параметр CABAC формата : Нет
Параметр ReFrames формата : 2 кадра
Идентификатор кодека : avc1
Идентификатор кодека/Информация : Advanced Video Coding
Продолжительность : 1 ч. 59 м.
Битрейт : 1800 Кбит/сек
Максимальный битрейт : 6778 Кбит/сек
Ширина : 640 пикселей
Высота : 364 пикселя
Соотношение сторон : 2,35:1
Режим частоты кадров : Постоянный
Частота кадров : 23,976 кадра/сек
Цветовое пространство : YUV
Субдискретизация насыщенности : 4:2:0
Битовая глубина : 8 бит
Тип развёртки : Прогрессивная
Бит/(Пиксели*Кадры) : 0.322
Размер потока : 1,49 Гбайт (83%)
Библиотека кодирования : x264 core 129 r2245+704+36 8e61944 tMod+MixAQ [8-bit@all X86_64]
Настройки программы : cabac=0 / ref=2 / deblock=1:-1:-1 / analyse=0x1:0x131 / me=umh / subme=7 / psy=1 / fade_compensate=1.00 / psy_rd=1.05:0.10 / mixed_ref=1 / me_range=32 / chroma_me=1 / trellis=2 / 8x8dct=0 / cqm=0 / deadzone=21,11 / fast_pskip=0 / chroma_qp_offset=-3 / threads=18 / lookahead_threads=3 / sliced_threads=0 / nr=0 / decimate=0 / interlaced=0 / bluray_compat=0 / constrained_intra=0 / fgo=2 / bframes=0 / weightp=0 / keyint=250 / keyint_min=23 / scenecut=40 / intra_refresh=0 / rc_lookahead=120 / rc=2pass / mbtree=1 / bitrate=1800 / ratetol=1.0 / qcomp=0.70 / qpmin=0 / qpmax=69 / qpstep=4 / cplxblur=20.0 / qblur=0.5 / vbv_maxrate=5000 / vbv_bufsize=5000 / nal_hrd=none / ip_ratio=1.30 / aq=1 / aq-strength=0.90 / aq-sensitivity=10.00 / aq-ifactor=1.00 / aq-pfactor=1.00 / aq-bfactor=1.00 / aq2=0
Язык : Korean
Дата кодирования : UTC 2013-03-28 13:02:55
Дата пометки : UTC 2013-03-28 13:03:26
Коэффициенты матрицы : BT.709
Видео #2
Идентификатор : 9
Формат : JPEG
Идентификатор кодека : jpeg
Продолжительность : 1 ч. 59 м.
Вид битрейта : Переменный
Битрейт : 698 бит/сек
Ширина : 640 пикселей
Высота : 273 пикселя
Соотношение сторон : 2,35:1
Режим частоты кадров : Переменный
Частота кадров : 0,003 кадр/сек
Минимальная частота кадров : 0,002 кадр/сек
Максимальная частота кадров : 0,007 кадр/сек
Цветовое пространство : YUV
Субдискретизация насыщенности : 4:2:0
Битовая глубина : 8 бит
Метод сжатия : С потерями
Бит/(Пиксели*Кадры) : 1.332
Размер потока : 596 Кбайт (0%)
Язык : Korean
Дата кодирования : UTC 2013-03-29 19:24:43
Дата пометки : UTC 2013-03-29 19:24:43
Аудио #1
Идентификатор : 2
Формат : AAC
Формат/Информация : Advanced Audio Codec
Профиль формата : LC
Идентификатор кодека : 40
Продолжительность : 1 ч. 59 м.
Вид битрейта : Переменный
Битрейт : 177 Кбит/сек
Максимальный битрейт : 224 Кбит/сек
Каналы : 2 канала
Расположение каналов : Front: L R
Частота : 48,0 КГц
Метод сжатия : С потерями
Размер потока : 151 Мбайт (8%)
Заголовок : AAC Russian VO (Y. Serbin)
Язык : Russian
Дата кодирования : UTC 2013-03-28 13:03:12
Дата пометки : UTC 2013-03-28 13:03:26
Аудио #2
Идентификатор : 4
Формат : AAC
Формат/Информация : Advanced Audio Codec
Профиль формата : LC
Идентификатор кодека : 40
Продолжительность : 1 ч. 59 м.
Вид битрейта : Переменный
Битрейт : 179 Кбит/сек
Максимальный битрейт : 226 Кбит/сек
Каналы : 2 канала
Расположение каналов : Front: L R
Частота : 48,0 КГц
Метод сжатия : С потерями
Размер потока : 153 Мбайт (8%)
Заголовок : AAC Korean
Язык : Korean
Дата кодирования : UTC 2013-03-28 13:03:19
Дата пометки : UTC 2013-03-28 13:03:26
Текст #1
Идентификатор : 6
Формат : Timed text
Режим смешивания : sbtl
Идентификатор кодека : tx3g
Продолжительность : 1 ч. 57 м.
Вид битрейта : Переменный
Битрейт : 63 бит/сек
Размер потока : 54,4 Кбайт (0%)
Заголовок : Subtitle Russian (@PD)
Язык : Russian
Дата кодирования : UTC 2013-03-28 13:03:26
Дата пометки : UTC 2013-03-28 13:03:26
Текст #2
Идентификатор : 7
Формат : Timed text
Режим смешивания : sbtl
Идентификатор кодека : tx3g
Продолжительность : 1 ч. 55 м.
Вид битрейта : Переменный
Битрейт : 31 бит/сек
Размер потока : 26,0 Кбайт (0%)
Заголовок : Subtitle English
Язык : English
Дата кодирования : UTC 2013-03-28 13:03:26
Дата пометки : UTC 2013-03-28 13:03:26
Текст #3
Идентификатор : 10
Формат : Apple text
Идентификатор кодека : text
Продолжительность : 1 ч. 59 м.
Вид битрейта : Постоянный
Битрейт : 1 бит/сек
Размер потока : 546 байт (0%)
Язык : Korean
Дата кодирования : UTC 2013-03-29 19:36:41
Дата пометки : UTC 2013-03-29 19:36:41
Меню
00:00:00.000 : 00:00:00.000
00:05:23.823 : 00:05:23.823
00:11:00.076 : 00:11:00.076
00:14:44.217 : 00:14:44.217
00:17:08.861 : 00:17:08.861
00:20:38.320 : 00:20:38.320
00:24:46.235 : 00:24:46.235
00:30:34.458 : 00:30:34.458
00:40:19.959 : 00:40:19.959
00:44:19.448 : 00:44:19.448
00:47:10.369 : 00:47:10.369
00:54:33.437 : 00:54:33.437
01:05:23.169 : 01:05:23.169
01:10:09.664 : 01:10:09.664
01:15:25.104 : 01:15:25.104
01:22:45.502 : 01:22:45.502
01:32:23.204 : 01:32:23.204
01:35:13.124 : 01:35:13.124
01:43:35.626 : 01:43:35.626
01:50:24.368 : 01:50:24.368
01:55:10.612 : 01:55:10.612
Sort Name: Ajeossi
XID: Apple:vendor_id:2010-484866
contentID: 484866
Copyright: © Cinema Service, Opus Pictures, United Pictures
Screenwriters: Ли Чжон Бом
Producers: Тай-хун Ли, Кэтрин Ким
Director: Ли Чжон Бом
Cast: Вон Бин, Ким Сэ Рон, Тхэ-Хун Ким, Хи-Вон Ким, Ким Сон О, Танаёнг Вонгтракул, Со-Хи Хонг, Хё-Со Ким, Нам Кён
Studio: © Cinema Service, Opus Pictures, United Pictures
Rating: 5
Long Deion: Ча Тай Шик скромный владелец ломбарда. Девочка Чон Соме его соседка и дочь матери-одиночки, которая работает в баре танцовщицей и не столько увлекается воспитанием ребенка, сколько ищет острых ощущений на свою и без того повидавшую виды, неудавшуюся жизнь. И вот однажды мать Соме вместе со своим парнем решает обокрасть наркокурьера, который регулярно появляется в заведении, где она выступает…
Deion: Ча Тай Шик скромный владелец ломбарда. Девочка Чон Соме его соседка и дочь матери-одиночки, которая работает в баре танцовщицей и не столько увлекается воспитанием ребенка, сколько ищет острых ощущений.
Release Date: 2010-08-05T07:00:00Z
Genre: Action & Crime & Thriller
Comments: «Nothing to lose, nothing to compromise»
Artist: Jeong-beom Lee
Name: Человек из ниоткуда




   Похожие торренты   Торрент   Размер 
В этой теме нет новых непрочитанных сообщений. Человек из ниоткуда / Ajeossi (2010) HDRip от Scarabey | P

74 | 2

1.45 ГБ

В этой теме нет новых непрочитанных сообщений. Человек из ниоткуда / Ajeossi (2010) BDRemux 1080p | А, L1, Р2

0 | 1

30.29 ГБ

В этой теме нет новых непрочитанных сообщений. Человек из ниоткуда / The Man From Nowhere / Ajusshi (2010) BDRip от HQ-ViDEO

163 | 9

2.19 ГБ

В этой теме нет новых непрочитанных сообщений. Человек из ниоткуда / The Man From Nowhere / Ajusshi (2010) BDRip от Alex 007

86 | 8

2.19 ГБ

В этой теме нет новых непрочитанных сообщений. Человек ниоткуда (2010) DVDRip-AVC от ExKinoRay

0 | 0

1.51 ГБ

В этой теме нет новых непрочитанных сообщений. Человек ниоткуда (1961) DVDRip от New-Team

16 | 0

744.97 МБ

В этой теме нет новых непрочитанных сообщений. Человек ниоткуда (1961) DVDRip-AVC от New-Team

13 | 0

1.09 ГБ




Вы не можете начинать темы
Вы не можете отвечать на сообщения
Вы не можете редактировать свои сообщения
Вы не можете удалять свои сообщения
Вы не можете добавлять вложения

Перейти:  
 Вход
ppkBB3cker v.2 © 2008-2014 @ PPK
[ Time : 0.029s | 15 Queries | GZIP : Off ]

cron