img image001 image001 image001 image001 image001 image001 image001 image001 image001 image001 image001 image001 image001 image001 image001 image001

Planets Sun Sun Sun
Статистика раздачи
Автор: Снежана | Размер: 746.8 МБ | Добавлен: 20 июл 2013
Раздают: 1    Качают: 2
Скачать торрент
Скачать торрент
Описание торрента

СообщениеДобавлено: 20 июл 2013 

#77

Информация о фильме
Название: Я ухожу - не плачь
Оригинальное название: Country Strong
Год выхода: 2010
Жанр: драма, музыка
Режиссер: Шана Фест / Shana Feste
В ролях: Гвинет Пэлтроу, Тим МакГроу, Гаррет Хедлунд, Тина Уайт, Лейтон Мистер, Маршалл Чэпман, Лари Уайт, Джереми Чайлдз, Дж.Д. Паркер, Лиза Стюарт

О фильме:
Cобытия развиваются вокруг молодого восходящего певца Бо, который увлекается кантри-певицей Келли Кантер, чья слава уже несколько померкла. Они вместе с менеджером, и по совместительству, мужем певицы Эдом, а также прекрасной поп-дивой Чилес Стэнтон отправляются в турне, пытаясь возродить былую популярность. Но романтические хитросплетения и старые грехи угрожают разрушить жизнь каждого из героев.

Страна: США
Продолжительность: 01:57:08
Перевод: Профессиональный (многоголосый, закадровый) | Лицензия

Файл
Кодек: XviD / MP3
Качество: HDRip
Видео: XviD, 720x304 (2.35:1), 23.976 fps, 754 kbps, 0.144 bit/pixel
Звук: МР3, 48 kHz, 2 ch, 128 kbps

Общее
Полное имя : Ja.uhozhu.ne.plach.2010.P.HDRip.745MB.avi
Формат : AVI
Формат/Информация : Audio Video Interleave
Размер файла : 747 Мбайт
Продолжительность : 1 ч. 57 м.
Общий поток : 891 Кбит/сек
Программа кодирования : VirtualDubMod 1.5.10.3 (build 2550/release)
Библиотека кодирования : VirtualDubMod build 2550/release

Видео
Идентификатор : 0
Формат : MPEG-4 Visual
Профиль формата : Advanced Simple@L5
Параметр BVOP формата : 1
Параметр QPel формата : Нет
Параметр GMC формата : Без точки перехода
Параметр матрицы формата : Выборочная
Идентификатор кодека : XVID
Идентификатор кодека/Подсказка : XviD
Продолжительность : 1 ч. 57 м.
Битрейт : 754 Кбит/сек
Ширина : 720 пикс.
Высота : 304 пикс.
Соотношение сторон : 2,35:1
Частота кадров : 23,976 кадр/сек
Цветовое пространство : YUV
Подвыборка цветности : 4:2:0
Битовая глубина : 8 бит
Тип развёртки : Прогрессивная
Метод сжатия : С потерями
Бит/(Пиксели*Кадры) : 0.144
Размер потока : 632 Мбайт (85%)
Библиотека кодирования : XviD 1.2.1 (UTC 2008-12-04)

Аудио
Идентификатор : 1
Формат : MPEG Audio
Версия формата : Version 1
Профиль формата : Layer 3
Режим : Joint stereo
Расширение режима : MS Stereo
Идентификатор кодека : 55
Идентификатор кодека/Подсказка : MP3
Продолжительность : 1 ч. 57 м.
Вид битрейта : Постоянный
Битрейт : 128 Кбит/сек
Канал(ы) : 2 канала(ов)
Частота : 48,0 КГц
Метод сжатия : С потерями
Размер потока : 107 Мбайт (14%)
Выравнивание : Соединение по промежуткам
Продолжительность промежутка : 42 мс. (1,00 видеокадр)
Время предзагрузки промежутка : 504 ms




   Похожие торренты   Торрент   Размер 
В этой теме нет новых непрочитанных сообщений. Я ухожу - не плачь / Country Strong (2010) HDRip от Scarabey | Лицензия

9 | 2

1.45 ГБ

В этой теме нет новых непрочитанных сообщений. Я ухожу - не плачь / Country Strong (2010) HDRip от Scarabey | Лицензия

3 | 1

747.16 МБ

В этой теме нет новых непрочитанных сообщений. Я ухожу - не плачь / Country Strong (2010) HDRip

1 | 1

1.46 ГБ

В этой теме нет новых непрочитанных сообщений. Я ухожу - не плачь / Country Strong (2010) BDRip 720p | Лицензия

0 | 1

5.82 ГБ

В этой теме нет новых непрочитанных сообщений. Я ухожу - не плачь / Country Strong (2010) BDRip

0 | 2

1.46 ГБ

В этой теме нет новых непрочитанных сообщений. Я ухожу - не плачь / Country Strong (2010) BDRip от HQCLUB

1 | 3

2.18 ГБ

В этой теме нет новых непрочитанных сообщений. Я ухожу - не плачь / Country Strong (2010) BDRip 1080p от FREEISLAND

0 | 2

4.37 ГБ




Вы не можете начинать темы
Вы не можете отвечать на сообщения
Вы не можете редактировать свои сообщения
Вы не можете удалять свои сообщения
Вы не можете добавлять вложения

Перейти:  
 Вход
ppkBB3cker v.2 © 2008-2014 @ PPK
[ Time : 0.028s | 18 Queries | GZIP : Off ]

cron