img image001 image001 image001 image001 image001 image001 image001 image001 image001 image001 image001 image001 image001 image001 image001 image001
Planets Sun Sun Sun
Статистика раздачи
Автор: Снежана | Размер: 23.96 ГБ | Добавлен: 20 июл 2013
Раздают: 1    Качают: 2
Скачать торрент
Скачать торрент
Описание торрента

СообщениеДобавлено: 20 июл 2013 

#77

Информация о фильме
Название: Девять
Оригинальное название: Nine
Год выхода: 2009
Жанр: Мелодрама, драма, мюзикл
Режиссер: Роб Маршалл
В ролях: Дэниэл Дэй-Льюис, Марион Котийяр, Пенелопа Крус, Николь Кидман, Джуди Денч, Кейт Хадсон, Софи Лорен, Стэйси Фергюсон, Рикки Тоньяцци

О фильме:
Известный режиссер Гвидо Контини должен закончить свой новый фильм. Но помимо этой проблемы есть и другая — его личная жизнь, поскольку он состоит в непростых отношениях с женой, любовницей, музой, агентом и еще с матерью.

Страна: США / Италия, The Weinstein Company
Продолжительность: 01:58:44
Перевод: Профессиональное (многоголосое) [лицензия]

Файл
Кодек: MKV
Качество: BDRemux
Видео: MPEG-4 AVC Video 25933 kbps 1080p / 23,976 fps / 16:9 / High Profile 4.1
Аудио 1: Dolby Digital Audio Russian 5.1 / 48 kHz / 448 kbps [R5]
Аудио 2: Dolby Digital Audio Russian 5.1 / 48 kHz / 384 kbps*
Аудио 3:DTS-HD Master Audio English 5.1 / 48 kHz / 3114 kbps / 24-bit (DTS Core: 5.1 / 48 kHz / 1509 kbps / 24-bit)

General
UniqueID : 171439032585718607425237883953908730084 (0x80F9F4E6F8F93091ADBB636392E2C8E4)
Complete name : J:Nine.2009.1080p.Bluray.AVC.Remux.mkv
Format : Matroska
File size : 24.0 GiB
Duration : 1h 58mn
Overall bit rate : 28.9 Mbps
Movie name : Nine.2009.1080p.Bluray.AVC.Remux
Encoded date : UTC 2011-04-27 18:33:41
Writing application : mkvmerge v3.2.0 ('Beginnings') built on Feb 12 2010 16:46:17
Writing library : libebml v0.7.9 + libmatroska v0.8.1

Video
ID : 1
Format : AVC
Format/Info : Advanced Video Codec
Format profile : High@L4.1
Format settings, CABAC : Yes
Format settings, ReFrames : 4 frames
Codec ID : V_MPEG4/ISO/AVC
Duration : 1h 58mn
Bit rate mode : Variable
Maximum bit rate : 38.0 Mbps
Width : 1 920 pixels
Height : 1 080 pixels
Display aspect ratio : 16:9
Frame rate : 23.976 fps
Color space : YUV
Chroma subsampling : 4:2:0
Bit depth : 8 bits
Scan type : Progressive
Title : uralmix
Color primaries : BT.709-5, BT.1361, IEC 61966-2-4, SMPTE RP177
Transfer characteristics : BT.709-5, BT.1361
Matrix coefficients : BT.709-5, BT.1361, IEC 61966-2-4 709, SMPTE RP177

Audio #1
ID : 2
Format : AC-3
Format/Info : Audio Coding 3
Mode extension : CM (complete main)
Codec ID : A_AC3
Duration : 1h 58mn
Bit rate mode : Constant
Bit rate : 448 Kbps
Channel(s) : 6 channels
Channel positions : Front: L C R, Side: L R, LFE
Sampling rate : 48.0 KHz
Bit depth : 16 bits
Compression mode : Lossy
Stream size : 380 MiB (2%)
Title : R5
Language : Russian

Audio #2
ID : 3
Format : AC-3
Format/Info : Audio Coding 3
Mode extension : CM (complete main)
Codec ID : A_AC3
Duration : 1h 58mn
Bit rate mode : Constant
Bit rate : 384 Kbps
Channel(s) : 6 channels
Channel positions : Front: L C R, Side: L R, LFE
Sampling rate : 48.0 KHz
Bit depth : 16 bits
Compression mode : Lossy
Stream size : 326 MiB (1%)
Title : двухголосый
Language : Russian

Audio #3
ID : 4
Format : DTS
Format/Info : Digital Theater Systems
Format profile : MA
Codec ID : A_DTS
Duration : 1h 58mn
Bit rate mode : Variable
Channel(s) : 6 channels
Channel positions : Front: L C R, Side: L R, LFE
Sampling rate : 48.0 KHz
Bit depth : 16 bits
Compression mode : Lossy
Language : English

Text #1
ID : 5
Format : UTF-8
Codec ID : S_TEXT/UTF8
Codec ID/Info : UTF-8 Plain Text
Language : Russian

Text #2
ID : 6
Format : UTF-8
Codec ID : S_TEXT/UTF8
Codec ID/Info : UTF-8 Plain Text
Language : English




   Похожие торренты   Торрент   Размер 
В этой теме нет новых непрочитанных сообщений. Девять жизней / Nine Lives (2016) BDRemux 1080p от ExKinoRay | iTunes

10 | 6

23.71 ГБ

В этой теме нет новых непрочитанных сообщений. Девять / 9 (2009) DVD-9

0 | 3

5.38 ГБ

В этой теме нет новых непрочитанных сообщений. Девять / 9 (2009) DVDRip

37 | 4

701.76 МБ

В этой теме нет новых непрочитанных сообщений. Девять / 9 (2009) DVDRip

2 | 2

1.37 ГБ

В этой теме нет новых непрочитанных сообщений. Девять / 9 (2009) BDRip-AVC | D

25 | 2

1.93 ГБ

В этой теме нет новых непрочитанных сообщений. Девять / 9 (2009) DVDRip

8 | 3

1.39 ГБ

В этой теме нет новых непрочитанных сообщений. Девять / 9 (2009) DVDRip-AVC

0 | 3

941.56 МБ




Вы не можете начинать темы
Вы не можете отвечать на сообщения
Вы не можете редактировать свои сообщения
Вы не можете удалять свои сообщения
Вы не можете добавлять вложения

Перейти:  
Для Мосгорсуда, Роскомнадзора и рекламодателей: mosgorsud-torrent[собачка]yandex.ru
 Вход
ppkBB3cker v.2 © 2008-2014 @ PPK
[ Time : 5.736s | 18 Queries | GZIP : Off ]

cron