img image001 image001 image001 image001 image001 image001 image001 image001 image001 image001 image001 image001 image001 image001 image001 image001

Planets Sun Sun Sun
Статистика раздачи
Автор: Nickolas3434 | Размер: 12.85 ГБ | Добавлен: 16 фев 2014
Раздают: 9    Качают: 51
Скачать торрент
Скачать торрент
Описание торрента

СообщениеДобавлено: 16 фев 2014 

Информация о фильме
Название: Я, робот
Оригинальное название: I, Robot
Год выхода: 2004
Жанр: фантастика, боевик, триллер, детектив
Режиссер: Алекс Пройас
В ролях: Уилл Смит, Бриджет Мойнэхэн, Алан Тьюдик, Джеймс Кромуэлл, Брюс Гринвуд, Чи МакБрайд, Шайа ЛаБаф, Адриан Рикард, Джерри Вассерман, Фиона Хоган

О фильме:
Действие фильма происходит в будущем (2035 г.), где роботы являются обычными помощниками человека. Главный герой — полицейский, «не переваривающий» роботов, расследует дело об убийстве, в которое оказывается вовлечен робот.

Речь идет о возможном нарушении «Закона о Роботах» (робот никогда не поднимет руки на человека), что, в принципе, невозможно. Ситуация близка к катастрофической: если машины могут нарушать этот закон, то уже ничто не остановит их от захвата контроля над людьми, тем более, что человечество уже давно стало полностью зависимо от роботов…


Страна: США, Германия
Студия: 20th Century Fox Film Corporation, Davis Entertainment
Продолжительность: 115 мин. / 01:55
Перевод: Полное дублирование
Перевод бонусов: субтитры

Файл
Кодек: MPEG2
Качество: 2xDVD9
Видео: PAL 16:9 (720x576) VBR 5460 Kbps, 25.000 fps
Звук 1: Dolby AC3, 6 ch, 48.0 KHz, 448 Kbps английский
Звук 2: Dolby AC3, 6 ch, 48.0 KHz, 384 Kbps русский, турецкий
Звук 3: Dolby AC3, 2 ch, 48.0 KHz, 192 Kbps комментарии
Субтитры: русские, английские, турецкие, болгарские, хорватские, эстонские, литовские, латышские, румынские, словенские
Бонус-Диск: Изо дня в день; Монтаж; Интеллектуальные машины; О роботах; Удаленные сцены

General
Complete name : D:Ya RobotDisc 1VTS_01_1.VOB
Format : MPEG-PS
File size : 1 024 MiB
Duration : 19mn 20s
Overall bit rate mode : Variable
Overall bit rate : 7 399 Kbps

Video
ID : 224 (0xE0)
Format : MPEG Video
Format version : Version 2
Format profile : Main@Main
Format settings, BVOP : No
Format settings, Matrix : Custom
Format settings, GOP : Variable
Duration : 19mn 20s
Bit rate mode : Variable
Bit rate : 5 460 Kbps
Width : 720 pixels
Height : 576 pixels
Display aspect ratio : 16:9
Frame rate : 25.000 fps
Standard : Component
Color space : YUV
Chroma subsampling : 4:2:0
Bit depth : 8 bits
Scan type : Progressive
Scan order : Top Field First
Compression mode : Lossy
Bits/(Pixel*Frame) : 0.527
Time code of first frame : 00:00:00:00
Time code source : Group of pictures header
Stream size : 755 MiB (74%)
Color primaries : BT.601 PAL
Transfer characteristics : BT.470 System B, BT.470 System G
Matrix coefficients : BT.601

Audio #1
ID : 189 (0xBD)-128 (0x80)
Format : AC-3
Format/Info : Audio Coding 3
Mode extension : CM (complete main)
Format settings, Endianness : Big
Muxing mode : DVD-Video
Duration : 19mn 20s
Bit rate mode : Constant
Bit rate : 448 Kbps
Channel(s) : 6 channels
Channel positions : Front: L C R, Side: L R, LFE
Sampling rate : 48.0 KHz
Bit depth : 16 bits
Compression mode : Lossy
Delay relative to video : -50ms
Stream size : 62.0 MiB (6%)

Audio #2
ID : 189 (0xBD)-129 (0x81)
Format : AC-3
Format/Info : Audio Coding 3
Mode extension : CM (complete main)
Format settings, Endianness : Big
Muxing mode : DVD-Video
Duration : 19mn 20s
Bit rate mode : Constant
Bit rate : 384 Kbps
Channel(s) : 6 channels
Channel positions : Front: L C R, Side: L R, LFE
Sampling rate : 48.0 KHz
Bit depth : 16 bits
Compression mode : Lossy
Delay relative to video : -50ms
Stream size : 53.1 MiB (5%)

Audio #3
ID : 189 (0xBD)-130 (0x82)
Format : AC-3
Format/Info : Audio Coding 3
Mode extension : CM (complete main)
Format settings, Endianness : Big
Muxing mode : DVD-Video
Duration : 19mn 20s
Bit rate mode : Constant
Bit rate : 384 Kbps
Channel(s) : 6 channels
Channel positions : Front: L C R, Side: L R, LFE
Sampling rate : 48.0 KHz
Bit depth : 16 bits
Compression mode : Lossy
Delay relative to video : -50ms
Stream size : 53.1 MiB (5%)

Audio #4
ID : 189 (0xBD)-131 (0x83)
Format : AC-3
Format/Info : Audio Coding 3
Format profile : Dolby Digital
Mode extension : CM (complete main)
Format settings, Endianness : Big
Muxing mode : DVD-Video
Duration : 19mn 20s
Bit rate mode : Constant
Bit rate : 192 Kbps
Channel(s) : 2 channels
Channel positions : Front: L R
Sampling rate : 48.0 KHz
Bit depth : 16 bits
Compression mode : Lossy
Delay relative to video : -50ms
Stream size : 26.6 MiB (3%)

Audio #5
ID : 189 (0xBD)-132 (0x84)
Format : AC-3
Format/Info : Audio Coding 3
Format profile : Dolby Digital
Mode extension : CM (complete main)
Format settings, Endianness : Big
Muxing mode : DVD-Video
Duration : 19mn 20s
Bit rate mode : Constant
Bit rate : 192 Kbps
Channel(s) : 2 channels
Channel positions : Front: L R
Sampling rate : 48.0 KHz
Bit depth : 16 bits
Compression mode : Lossy
Delay relative to video : -50ms
Stream size : 26.6 MiB (3%)

Audio #6
ID : 189 (0xBD)-133 (0x85)
Format : AC-3
Format/Info : Audio Coding 3
Format profile : Dolby Digital
Mode extension : CM (complete main)
Format settings, Endianness : Big
Muxing mode : DVD-Video
Duration : 19mn 20s
Bit rate mode : Constant
Bit rate : 192 Kbps
Channel(s) : 2 channels
Channel positions : Front: L R
Sampling rate : 48.0 KHz
Bit depth : 16 bits
Compression mode : Lossy
Delay relative to video : -50ms
Stream size : 26.6 MiB (3%)

Text #1
ID : 189 (0xBD)-32 (0x20)
Format : RLE
Format/Info : Run-length encoding
Muxing mode : DVD-Video

Text #2
ID : 189 (0xBD)-33 (0x21)
Format : RLE
Format/Info : Run-length encoding
Muxing mode : DVD-Video

Text #3
ID : 189 (0xBD)-34 (0x22)
Format : RLE
Format/Info : Run-length encoding
Muxing mode : DVD-Video

Text #4
ID : 189 (0xBD)-35 (0x23)
Format : RLE
Format/Info : Run-length encoding
Muxing mode : DVD-Video

Text #5
ID : 189 (0xBD)-36 (0x24)
Format : RLE
Format/Info : Run-length encoding
Muxing mode : DVD-Video

Text #6
ID : 189 (0xBD)-37 (0x25)
Format : RLE
Format/Info : Run-length encoding
Muxing mode : DVD-Video

Text #7
ID : 189 (0xBD)-38 (0x26)
Format : RLE
Format/Info : Run-length encoding
Muxing mode : DVD-Video

Text #8
ID : 189 (0xBD)-39 (0x27)
Format : RLE
Format/Info : Run-length encoding
Muxing mode : DVD-Video

Text #9
ID : 189 (0xBD)-41 (0x29)
Format : RLE
Format/Info : Run-length encoding
Muxing mode : DVD-Video

Text #10
ID : 189 (0xBD)-43 (0x2B)
Format : RLE
Format/Info : Run-length encoding
Muxing mode : DVD-Video

Menu




   Похожие торренты   Торрент   Размер 
В этой теме нет новых непрочитанных сообщений. Я, робот / I, Robot (2004) Blu-ray CEE 1080p | D

62 | 50

41.57 ГБ

В этой теме нет новых непрочитанных сообщений. Я, робот / I, Robot (2004) BDRip-AVC | D

90 | 5

746.33 МБ

В этой теме нет новых непрочитанных сообщений. Я, Робот / I, Robot (2004) BDRip 1080p | 60 fps | D, P2, A

123 | 20

13.87 ГБ

В этой теме нет новых непрочитанных сообщений. Я, робот / I, Robot (2004) BDRip-HEVC 1080p | D

92 | 7

7.29 ГБ

В этой теме нет новых непрочитанных сообщений. Я, Робот / I, Robot (2004) BDRip | Open Matte

598 | 36

1.45 ГБ

В этой теме нет новых непрочитанных сообщений. Я, робот / I, Robot (2004) BDRip 720p от HELLYWOOD | D, P, P2, A

24 | 1

9.85 ГБ

В этой теме нет новых непрочитанных сообщений. Я, робот / I, Robot (2004) HDRip от MediaClub | КПК | Open Matte

272 | 14

520.92 МБ




Вы не можете начинать темы
Вы не можете отвечать на сообщения
Вы не можете редактировать свои сообщения
Вы не можете удалять свои сообщения
Вы не можете добавлять вложения

Перейти:  
 Вход
ppkBB3cker v.2 © 2008-2014 @ PPK
[ Time : 0.027s | 19 Queries | GZIP : Off ]

cron